Доктор Стрэндж

Лицензия

Добыча

Дубляж

Дом дракона

1 сезон

Тор

Дубляж

В эфире

Дубляж

Там, где раки поют

MVO

Властелин колец

1 сезон

GLOBAL

pack

Рекомендуем

30

Пиратка

ВАЖНО

ВАЖНО

Ghostwire

Пиратка

jed

RePack

nioh2

RePack

RDR2

RePack

NEED FOR SPEED™ PAYBACK

RePack

скачать торрент

Кинопоиск HD

Острые козырьки 6 сезон

6 сезон

FAR CRY 6

RePack

скачать торрент

Лицензия

скачать торрент

MVO

1

1 сезон

скачать торрент

1 сезон

скачать торрент

Лицензия

  

Тайсон / Tyson (Джеймс Тобэк) [2008 г., документальный, спорт, HDRip, Профессиональный (многоголосый)]

Тайсон через торрент pb.wtf

Размер: 1.45 GB | Добавлен: 10 лет назад | Торрент скачан:181 раз
| Скачать   

01-05-2012 03:47 Тайсон Скачать торрент  

Тайсон / Tyson

Год выпуска: 2008
Страна: США
Жанр: документальный, спорт
Продолжительность: 01:30:07
Перевод: Профессиональный (многоголосый)

Режиссер: Джеймс Тобэк
Продюссер: Джеймс Тобэк, Дэймон Бингэм, Кармело Энтони
Сценарий: Джеймс Тобэк

Премьера в мире: 14 сентября 2008

R-лицам до 17 лет обязательно присутствие взрослого
Мировой рейтинг IMDB 7.60 (6 743)


В ролях: Миллс Лэйн, Майк Тайсон, Тревор Бербик, Кас Д’Амато, Уильям Кэйтон, Джим Джейкобс, Джо Луис, Макс Шмелинг, Джек Демпси, Джин Тунни

Описание: Документальный фильм о взлётах и падениях в карьере легендарного боксёра Майка Тайсона.

Качество: HDRip
Формат: AVI
Видео кодек: XviD
Аудио кодек: AC3
Видео: 1 853 Kbps, 704 pixels х 384 pixels, 23.976 fps, Bits/Pixel: 0.286
Аудио: 448 Kbps, 6 channels, 48.0 KHz





Format : AVI
Format/Info : Audio Video Interleave
File size : 1.45 GiB
Duration : 1h 30mn
Overall bit rate : 2 310 Kbps
Writing application : VirtualDubMod 1.5.10.2 (build 2540/release)

Video
ID : 0
Format : MPEG-4 Visual
Format profile : Advanced [email protected]
Format settings, BVOP : 1
Format settings, QPel : No
Format settings, GMC : No warppoints
Format settings, Matrix : Custom
Codec ID : XVID
Codec ID/Hint : XviD
Duration : 1h 30mn
Bit rate : 1 853 Kbps
Width : 704 pixels
Height : 384 pixels
Display aspect ratio : 16:9
Frame rate : 23.976 fps
Color space : YUV
Chroma subsampling : 4:2:0
Bit depth : 8 bits
Scan type : Progressive
Compression mode : Lossy
Bits/(Pixel*Frame) : 0.286
Stream size : 1.17 GiB (80%)
Writing library : XviD 64

Audio
ID : 1
Format : AC-3
Format/Info : Audio Coding 3
Mode extension : CM (complete main)
Codec ID : 2000
Duration : 1h 30mn
Bit rate mode : Constant
Bit rate : 448 Kbps
Channel(s) : 6 channels
Channel positions : Front: L C R, Side: L R, LFE
Sampling rate : 48.0 KHz
Bit depth : 16 bits
Compression mode : Lossy
Stream size : 289 MiB (19%)
Alignment : Split accross interleaves
Interleave, duration : 42 ms (1.00 video frame)
Interleave, preload duration : 500 ms




Скачать Тайсон через торрент https://pic1.kartinco.top/images/2000/4usnq4ycxf.jpg Скачать, смотреть онлайн Тайсон бесплантно в хорошем качестве Описание: Документальный фильм о взлётах и падениях в карьере легендарного боксёра Майка ... 10 10 2
Info! Золотая раздача, скачанное не засчитывается.
Торрент: Зарегистрирован [2012-05-01 03:47] · скачан: 181 раз
Статус: √ проверено
Размер: 1.45 GB
Как cкачать? Как скачать Тайсон через торрент | UTorrent

% Раздел Тема Автор DL S | L
Научно-популярные фильмы [ 1.69 GB ] Тайсон / Tyson | MVO + Original | HDRip Kristian Larsson Скачать
1 | 0
Научно-популярные фильмы [ 1.37 GB ] Тайсон / Tyson | | DVDRip paul08 Скачать
1 | 0

28-11-2019 20:33  


Отключить вcю реклaмy на сайте, в т.ч. и в плеере онлайн просмотра!

01-05-2012 07:09 Тайсон Скачать торрент  

спс релизеру, для меня железный Майк лучший из всех боксеров в истории. забираю в коллекцию :)



01-05-2012 07:12 Тайсон Скачать торрент  

для меня железный Майк лучший из всех боксеров в истории. Согласен.



01-05-2012 09:45 Тайсон Скачать торрент  

так точно



12-05-2012 14:27 Тайсон Скачать торрент  

Автору спасибо - Майк! Али! Фрейзер!



23-05-2013 14:31 Тайсон Скачать торрент  

супер!



    Дорогой пользователь! Огромная просьба, поблагодарите релизера, оцените раздачу и оставьте свои комментарий, если Вы скачали Тайсон через торрент бесплатно!!
    Комментировать посты могут только пользователи прошедшие не сложную регистрацию
    Показать сообщения:    


    Тайсон через торрент
    Скачать бесплатно Тайсон
    Тайсон скачать торрент
    Тайсон смотреть онлайн
    Cкачать фильм Тайсон бесплатно
    Тайсон скачать торрент в хорошем качестве
    Тайсон смотреть онлайн бесплатно в хорошем качестве
    Вы не можете начинать темы
    Вы не можете отвечать на сообщения
    Вы не можете редактировать свои сообщения
    Вы не можете удалять свои сообщения
    Вы не можете голосовать в опросах
    Вы не можете прикреплять файлы к сообщениям
    Вы можете скачивать файлы
    Тайсон / Tyson [2008 г., документальный, спорт, HDRip, Профессиональный ] смотреть онлайн, скачать торрент picoco.icu