Ссылка на приватное зеркало нашего сайта всего за 1$. Внимание количество ограничено!!!

2 сезон

iTunes

1 сезон

1

iTunes

iTunes

iTunes

1 сезон

RePack

30

ИГРА 18+

pack

ВАЖНО

!!Акция!!

Alien_RageХит недели

RePack

MK11
pack

Забери бонус

RePack

jed

!!Акция!!

Alien_Rage

RePack

fifa19

RePack

Assassins Creed: Odyssey

RePack

NEED FOR SPEED™ PAYBACK

4 сезон

9 сезон

Бесстыжие 9 сезон

Все сериалы

все сериалы на PB.wtf

RePack

FAR CRY 5
  

Другая Земля / Another Earth (Майк Кэхилл) [2011 г., фантастика, драма, BDRip (720p), Профессиональный (многоголосый) (лицензия)] pb.wtf

Другая Земля через торрент pb.wtf

Размер: 4.76 GB | Добавлен: 8 лет 5 мес. назад | Торрент скачан:280 раз
Скачать  

02-05-2012 15:28 Другая Земля Скачать торрент  

Другая Земля / Another Earth

Год выпуска: 2011
Страна: США
Жанр: фантастика, драма
Продолжительность: 01:32:25
Перевод: Профессиональный (многоголосый) (Лицензия)
  • Режиссер: Майк Кэхилл
  • Продюссер: Майк Кэхилл, Хантер Грэй, Брит Марлинг
  • Сценарий: Майк Кэхилл, Брит Марлинг
  • Премьера в мире: 24 января 2011
  • Детям до 13 лет просмотр не желателен

В ролях: Брит Марлинг, Мэттью-Ли Эрлбах, DJ Flava, Уильям Мапотер, Мегган Леннон, Ай Диана, Брюс Колбер, Пол С. Мези, Ана Валле, Джеффри Голденберг

Описание: Научно-фантастическая драма о трагическом пересечении жизней студентки и композитора в ночь открытия учёными идентичной Земле планеты в Солнечной системе.
  • Качество: BDRip (720p)
  • Формат: MKV
  • Видео кодек: AVC
  • Аудио кодек: AC3
  • Видео: AVC, 1280x692 (1.850), 23.976 fps, 5 232 Kbps (0.246 bit/pixel)
  • Аудио#1: AC-3, 48.0 KHz, 6 ch, 640 Kbps, CBR (Russian)
  • Аудио#2: DTS, 48.0 KHz, 6 ch, 1 510 Kbps, CBR (English)
  • Субтитры: Russian [Forced], Russian, Ukrainian, English
--> Перейти к DVD9 <--
скриншот   скриншот   скриншот   скриншот  

Код:

Общее
Уникальный идентификатор                 : 195610905911242519070008770003999882601 (0x93294A44EE923FC3BA98A30BD2CF7D69)
Полное имя                               : D:\Torrents\Drugaya.Zemlya.2011.P.BDRip.720p.mkv
Формат                                   : Matroska
Версия формата                           : Version 2
Размер файла                             : 4,76 Гбайт
Продолжительность                        : 1 ч. 32 м.
Общий поток                              : 7380 Кбит/сек
Название фильма                          : Drugaya.Zemlya.2011.P.BDRip.720p.[uniongang.tv] by sstonecold
Дата кодирования                         : UTC 2012-05-02 13:48:01
Программа кодирования                    : mkvmerge v5.2.0 ('I can't explain') built on Dec 18 2011 18:12:03
Библиотека кодирования                   : libebml v1.2.3 + libmatroska v1.3.0

Видео
Идентификатор                            : 1
Формат                                   : AVC
Формат/Информация                        : Advanced Video Codec
Профиль формата                          : High@L4.1
Параметр CABAC формата                   : Да
Параметр ReFrames формата                : 8 кадров
Идентификатор кодека                     : V_MPEG4/ISO/AVC
Продолжительность                        : 1 ч. 32 м.
Битрейт                                  : 5232 Кбит/сек
Ширина                                   : 1280 пикселей
Высота                                   : 692 пикселя
Соотношение сторон                       : 1,850
Частота кадров                           : 23,976 кадра/сек
Цветовое пространство                    : YUV
Субдискретизация насыщенности            : 4:2:0
Битовая глубина                          : 8 бит
Тип развёртки                            : Прогрессивная
Бит/(Пиксели*Кадры)                      : 0.246
Размер потока                            : 3,28 Гбайт (69%)
Заголовок                                : Drugaya.Zemlya.2011.P.BDRip.720p.[uniongang.tv] by sstonecold
Библиотека кодирования                   : x264 core 98 r1649 c54c47d
Настройки программы                      : cabac=1 / ref=8 / deblock=1:-3:-3 / analyse=0x3:0x113 / me=umh / subme=9 / psy=1 / psy_rd=1.10:0.00 / mixed_ref=1 / me_range=32 / chroma_me=1 / trellis=2 / 8x8dct=1 / cqm=0 / deadzone=21,11 / fast_pskip=0 / chroma_qp_offset=-4 / threads=12 / sliced_threads=0 / nr=0 / decimate=0 / interlaced=0 / constrained_intra=0 / bframes=6 / b_pyramid=2 / b_adapt=2 / b_bias=0 / direct=3 / weightb=1 / weightp=2 / keyint=250 / keyint_min=25 / scenecut=40 / intra_refresh=0 / rc_lookahead=48 / rc=2pass / mbtree=1 / bitrate=5232 / ratetol=1.0 / qcomp=0.60 / qpmin=10 / qpmax=51 / qpstep=4 / cplxblur=20.0 / qblur=0.5 / ip_ratio=1.40 / aq=1:0.80
Язык                                     : English
Default                                  : Да
Forced                                   : Нет

Аудио #1
Идентификатор                            : 2
Формат                                   : AC-3
Формат/Информация                        : Audio Coding 3
Расширение режима                        : CM (complete main)
Параметр Endianness формата              : Big
Идентификатор кодека                     : A_AC3
Продолжительность                        : 1 ч. 32 м.
Вид битрейта                             : Постоянный
Битрейт                                  : 640 Кбит/сек
Каналы                                   : 6 каналов
Расположение каналов                     : Front: L C R, Side: L R, LFE
Частота                                  : 48,0 КГц
Битовая глубина                          : 16 бит
Метод сжатия                             : С потерями
Размер потока                            : 423 Мбайт (9%)
Язык                                     : Russian
Default                                  : Да
Forced                                   : Нет

Аудио #2
Идентификатор                            : 3
Формат                                   : DTS
Формат/Информация                        : Digital Theater Systems
Идентификатор кодека                     : A_DTS
Продолжительность                        : 1 ч. 32 м.
Вид битрейта                             : Постоянный
Битрейт                                  : 1510 Кбит/сек
Каналы                                   : 6 каналов
Расположение каналов                     : Front: L C R, Side: L R, LFE
Частота                                  : 48,0 КГц
Битовая глубина                          : 24 бит
Метод сжатия                             : С потерями
Размер потока                            : 998 Мбайт (20%)
Язык                                     : English
Default                                  : Нет
Forced                                   : Нет

Текст #1
Идентификатор                            : 4
Формат                                   : UTF-8
Идентификатор кодека                     : S_TEXT/UTF8
Идентификатор кодека/Информация          : UTF-8 Plain Text
Заголовок                                : Forced
Язык                                     : Russian
Default                                  : Да
Forced                                   : Нет

Текст #2
Идентификатор                            : 5
Формат                                   : UTF-8
Идентификатор кодека                     : S_TEXT/UTF8
Идентификатор кодека/Информация          : UTF-8 Plain Text
Язык                                     : Russian
Default                                  : Нет
Forced                                   : Нет

Текст #3
Идентификатор                            : 6
Формат                                   : UTF-8
Идентификатор кодека                     : S_TEXT/UTF8
Идентификатор кодека/Информация          : UTF-8 Plain Text
Язык                                     : Ukrainian
Default                                  : Нет
Forced                                   : Нет

Текст #4
Идентификатор                            : 7
Формат                                   : UTF-8
Идентификатор кодека                     : S_TEXT/UTF8
Идентификатор кодека/Информация          : UTF-8 Plain Text
Язык                                     : English
Default                                  : Нет
Forced                                   : Нет


pb.wtf



Скачать Другая Земля через торрент http://pic.kartinco.top/images/2000/th2vtxwc42.png Скачать фильм Другая Земля через торрент бесплантно в хорошем качестве Описание: Научно-фантастическая драма о трагическом пересечении жизней студентки и композитора в ночь открытия учёными идентичной Земле ... 10 10 2
Info! Золотая раздача, скачанное не засчитывается.
Торрент: Зарегистрирован [2012-05-02 15:28] · скачан: 280 раз
Статус: √ проверено
Размер: 4.76 GB
Как cкачать? Как скачать Другая Земля через торрент | qTorrent

% Раздел Тема Автор DL S | L
Фильмы [HD 720p, 1080p] (Хороший звук DUB, MVO) [ 7.78 GB ] Другая Земля / Another Earth [2011 BDRip 1080p] MVO _denis_100 Скачать
1 | 0
Фильмы [HD 720p, 1080p] (Хороший звук DUB, MVO) [ 5.46 GB ] Другая Земля / Another Earth [2011 BDRip 720p] Многоголосый закадровый + Original + Subs от R.G. PiratFilms Messa-fan Скачать
1 | 0
Фильмы (DVD фильмы) [ 5.64 GB ] Другая Земля / Another Earth [2011 DVD9 ] shuller Скачать
1 | 0

28-11-2019 20:33  

Отключить всю рекламу на сайте

    Дорогой пользователь! Огромная просьба, поблагодарите релизера, оцените раздачу и оставьте свои комментарий, если Вы скачали Другая Земля через торрент бесплатно! Внесите свою лепту в развитие PiratBit!
    Комментировать посты могут только пользователи прошедшие не сложную регистрацию
    Показать сообщения:    

    Другая Земля через торрент
    Скачать бесплатно Другая Земля
    Другая Земля скачать торрент
    Другая Земля смотреть онлайн
    Cкачать фильм Другая Земля бесплатно
    Другая Земля скачать торрент в хорошем качестве
    Другая Земля смотреть онлайн бесплатно в хорошем качестве


    Вы не можете начинать темы
    Вы не можете отвечать на сообщения
    Вы не можете редактировать свои сообщения
    Вы не можете удалять свои сообщения
    Вы не можете голосовать в опросах
    Вы не можете прикреплять файлы к сообщениям
    Вы можете скачивать файлы