Ссылка на приватное зеркало нашего сайта всего за 1$. Внимание количество ограничено!!!

2 сезон

iTunes

1 сезон

1

iTunes

iTunes

iTunes

1 сезон

RePack

30

ИГРА 18+

pack

ВАЖНО

!!Акция!!

Alien_RageХит недели

RePack

MK11
pack

Забери бонус

RePack

jed

!!Акция!!

Alien_Rage

RePack

fifa19

RePack

Assassins Creed: Odyssey

RePack

NEED FOR SPEED™ PAYBACK

4 сезон

9 сезон

Бесстыжие 9 сезон

Все сериалы

все сериалы на PB.wtf

RePack

FAR CRY 5
  

Мастер и Маргарита (10 серийиз10) (Владимир Бортко) [2005 г., триллер, драма, мелодрама, детектив, SATRip] pb.wtf

Мастер и Маргарита через торрент pb.wtf

Размер: 4.3 GB | Добавлен: 8 лет 5 мес. назад | Торрент скачан:1725 раз
Скачать  

03-05-2012 08:48 Мастер и Маргарита Скачать торрент  

Мастер и Маргарита

Год выпуска: 2005
Страна: Россия
Жанр: триллер, драма, мелодрама, детектив
Продолжительность: 500 мин.
Перевод:: Не требуется

Режиссер: Владимир Бортко
Продюссер: Валерий Тодоровский, Владимир Бортко
Сценарий: Владимир Бортко, Михаил Булгаков

Мировой рейтинг IMDB 7.10 (1 541)


В ролях: Анна Ковальчук, Александр Галибин, Олег Басилашвили, Владислав Галкин, Кирилл Лавров, Александр Абдулов, Александр Филиппенко, Сергей Безруков, Александр Баширов, Валентин Гафт, Сергей Безруков, Семен Фурман, Андрей Толубеев, Олег Басилашвили

Описание: Однажды весною, в час небывало жаркого заката, в Москве, на Патриарших прудах, появились два гражданина. Первый из них, одетый в летнюю серенькую пару, был маленького роста, упитан, лыс, свою приличную шляпу пирожком нес в руке, а на хорошо выбритом лице его помещались сверхъестественных размеров очки в черной роговой оправе. Второй — плечистый, рыжеватый, вихрастый молодой человек в заломленной на затылок клетчатой кепке — был в ковбойке, жеваных белых брюках и в черных тапочках.

Доп. информация: 10 Серий + "Мастер и Маргарита: На кануне"(фильм о фильме)

Качество: SATRip
Формат: AVI
Видео кодек: XviD
Аудио кодек: MP3
Видео: 624x352 (16:9); 25 fps; XviD; 1092 kbps avg; 0.189 bit/pixel
Аудио#1: 48 kHz; MPEG Layer 3; 1 ch; 96.00 kbps avg




General
Complete name: J:\master_i_margo\
Format: AVI
Format/Info: Audio Video Interleave
File size: 78.8 MiB
Overall bit rate: 1 197 Kbps
Writing application: VirtualDubMod 1.5.10.2 (build 2540/release)
Writing library: VirtualDubMod build 2540/release

Video
ID: 0
Format : MPEG-4 Visual
Format profile : Simple@L3
Format settings, BVOP: 1
Format settings, QPel: No
Format settings, GMC: No warppoints
Format settings, Matrix: Default (H.263)
Muxing mode : Packed bitstream
Codec ID: XVID
Codec ID/Hint: XviD
Bit rate: 1 092 Kbps
Width : 624 pixels
Height: 352 pixels
Display aspect ratio: 1.864
Frame rate: 25.000 fps
Color space: YUV
Chroma subsampling: 4:2:0
Bit depth: 8 bits
Scan type: Progressive
Compression mode: Lossy
Bits/(Pixel*Frame): 0.189
Stream size: 71.8 MiB (91%)
Writing library: XviD 1.1.0 Beta2 (UTC 2005-04-04)

Audio
ID: 1
Format: MPEG Audio
Format version: Version 1
Format profile: Layer 3
Codec ID: 55
Codec ID/Hint: MP3
Bit rate mode: Constant
Bit rate: 96.0 Kbps
Channel(s): 1 channel
Sampling rate: 48.0 KHz
Compression mode: Lossy
Stream size: 6.31 MiB (8%)
Alignment: Split accross interleaves
Interleave, duration: 40 ms (1.00 video frame)
Interleave, preload duration: 500 ms

pb.wtf



Скачать Мастер и Маргарита через торрент http://i.imagehost.org/0569/Cover.jpg Скачать фильм Мастер и Маргарита через торрент бесплантно в хорошем качестве Описание: Однажды весною, в час небывало жаркого заката, в Москве, на Патриарших прудах, появились два гражданина. Первый из них, одетый ... 9.6 10 31
Info! Золотая раздача, скачанное не засчитывается.
Торрент: Зарегистрирован [2012-05-03 08:48] · скачан: 1 725 раз
Статус: √ проверено
Размер: 4.3 GB
Как cкачать? Как скачать Мастер и Маргарита через торрент | qTorrent

% Раздел Тема Автор DL S | L
Наши сериалы [ 37.38 GB ] Мастер и Маргарита / Серии: 1-12 из 12 [2005 HDTV 1080i] bober100 Скачать
1 | 0
Наши сериалы [ 6.72 GB ] Мастер и Маргарита [2005 DVDRip-AVC] -Lexx- Скачать
1 | 0
Наши сериалы [ 5.72 GB ] Мастер и Маргарита / Серии: 1-10 из 10 [2005 экранизация SATRip-AVC] aleksan55 Скачать
1 | 0
Ужасы, Мистика [ 522 MB ] Булгаков Михаил - Мастер и Маргарита [Джахангир Абдуллаев 2016 64 kbps MP3] bober100 Скачать
1 | 0
Наши сериалы [ 2.16 GB ] Мастер и Маргарита / Серии 1-4 из 4 [1994 HDRip-DVDScreener] Полная версия Один 777 Скачать
1 | 0
Ужасы, Мистика [ 685 MB ] Булгаков Михаил - Мастер и Маргарита [Владимир Самойлов 2002 96 kbps MP3] bober100 Скачать
1 | 0
Фильмы [HD 720p, 1080p] (Хороший звук DUB, MVO) [ 9.35 GB ] Мастер и Маргарита / Il maestro e Margherita [1972 BDRip 1080p by msltel] VO msltel Скачать
1 | 0


Последний раз редактировалось: Run (2012-05-03 15:26), всего редактировалось 3 раз(а)

28-11-2019 20:33  

Отключить всю рекламу на сайте

03-05-2012 14:15 Мастер и Маргарита Скачать торрент  

Морда
Не в зависимости что это русский сериал, перевод указывается. Заголовок оформлен не правильно.
Название на оригинале /сезонов (Кол-во серий) (режиссер) [год, жанр, качество]
(мини-сериал) - убери.Прстер и скриншоты не отображаются, исправь битрей видео, он не соответствует МИ

http://puu.sh/sI9Zpb.wtf





Последний раз редактировалось: -=Cherry=- (2012-05-03 14:18), всего редактировалось 1 раз

03-05-2012 14:19 Мастер и Маргарита Скачать торрент  

Морда писал(а):

Качество: HDTV

А вы знаете что это за формат ?

Морда писал(а):

Видео: 624x352

Это ни как не HDTV !pb.wtf



03-05-2012 14:37 Мастер и Маргарита Скачать торрент  

-=Cherry=-
Я при помощи кнопки "Заполнить форму через Кинопоиск", картинки залиты были на piratpic и поначалу отображались. Сейчас поправлюpb.wtf



07-05-2012 16:30 Мастер и Маргарита Скачать торрент  

дайте скорости, плиз!!!pb.wtf



07-01-2013 16:31 Мастер и Маргарита Скачать торрент  

очень хорошо снят фильм. спасибо за фильм.pb.wtf



    Дорогой пользователь! Огромная просьба, поблагодарите релизера, оцените раздачу и оставьте свои комментарий, если Вы скачали Мастер и Маргарита через торрент бесплатно! Внесите свою лепту в развитие PiratBit!
    Комментировать посты могут только пользователи прошедшие не сложную регистрацию
    Показать сообщения:    

    Мастер и Маргарита через торрент
    Скачать бесплатно Мастер и Маргарита
    Мастер и Маргарита скачать торрент
    Мастер и Маргарита смотреть онлайн
    Cкачать фильм Мастер и Маргарита бесплатно
    Мастер и Маргарита скачать торрент в хорошем качестве
    Мастер и Маргарита смотреть онлайн бесплатно в хорошем качестве


    Вы не можете начинать темы
    Вы не можете отвечать на сообщения
    Вы не можете редактировать свои сообщения
    Вы не можете удалять свои сообщения
    Вы не можете голосовать в опросах
    Вы не можете прикреплять файлы к сообщениям
    Вы можете скачивать файлы