Ссылка на приватное зеркало нашего сайта всего за 1$. Внимание количество ограничено!!!

2 сезон

iTunes

1 сезон

1

2 сезон

2 сезон

iTunes

1 сезон

RePack

30

Новинка

ВАЖНО

ИГРА 18+

pack

RePack

MK11
pack

Забери бонус

RePack

jed

!!Акция!!

Alien_Rage

RePack

fifa19

RePack

Assassins Creed: Odyssey

RePack

NEED FOR SPEED™ PAYBACK

4 сезон

9 сезон

Бесстыжие 9 сезон

Все сериалы

все сериалы на PB.wtf

RePack

FAR CRY 5
  

Центр сексуальной реабилитации / Center of sex (Antonio Adamo / Private.) [2002 г., Feature & Vignettes., DVD9, Оригинал] pb.wtf

Центр сексуальной реабилитации через торрент pb.wtf

Размер: 6.63 GB | Добавлен: 8 лет 6 мес. назад | Торрент скачан:271 раз
Скачать  

03-05-2012 14:43 Центр сексуальной реабилитации Скачать торрент  

Центр сексуальной реабилитации. / Center of sex. Год выпуска: 2002 г.
Страна: Испания.
Жанр: Feature & Vignettes.
Продолжительность: 01:38:42.
Перевод: Оригинал

Режиссер: Antonio Adamo.
Студия: Private.

В ролях: Felecia, Sophie Evans, Bridgette Kerkove, Nikita Denise, Syren, Samantha Sterling.

Описание: Несмотря на молодость и отменное здоровье, Брюс и Диана переживают кризис в сексуальных отношениях. Безусловно, причины надо искать в области психологии, поскольку трудно себе представить, чтобы нормально ориентированный мужик не отреагировал на женские прелести Дианы. Опытные специалисты сексуально-реабилитационного центра всегда помогут.
[Групповой секс. Топ-модели]

Доп. информация:
Язык: Английский.
Доп. языки: Французский, Немецкий, Испанский, Итальянский.
Субтитры: Голландский Шведский Датский Португальский Польский.

Качество: DVD9.
Формат: VOB.
Видео кодек: MPEG2.
Аудио кодек: AC3.
: General
Complete name : Center of sex\Center of sex\VIDEO_TS\VTS_01_1.VOB Format : MPEG-PS File size : 1 024 MiB Duration : 8mn 4s Overall bit rate : 17.7 Mbps

Video ID : 224 (0xE0) Format : MPEG Video Format version : Version 2 Format profile : Main@Main Format settings, Matrix : Default Duration : 8mn 4s Bit rate mode : Constant Bit rate : 16.1 Mbps Width : 720 pixels Height : 480 pixels Display aspect ratio : 4:3 Frame rate : 29.970 fps Standard : NTSC Colorimetry : 4:2:0 Bits/(Pixel*Frame) : 1.550 Stream size : 928 MiB (91%)

Audio #1 ID : 128 (0x80) Format : AC-3 Format/Info : Audio Coding 3 Duration : 8mn 4s Bit rate mode : Constant Bit rate : 192 Kbps Channel(s) : 2 channels Channel positions : L R Sampling rate : 48.0 KHz Video delay : -50ms Stream size : 11.1 MiB (1%)

Audio #2 ID : 129 (0x81) Format : AC-3 Format/Info : Audio Coding 3 Duration : 8mn 4s Bit rate mode : Constant Bit rate : 192 Kbps Channel(s) : 2 channels Channel positions : L R Sampling rate : 48.0 KHz Video delay : -310ms Stream size : 11.1 MiB (1%)

Audio #3 ID : 130 (0x82) Format : AC-3 Format/Info : Audio Coding 3 Duration : 8mn 4s Bit rate mode : Constant Bit rate : 192 Kbps Channel(s) : 2 channels Channel positions : L R Sampling rate : 48.0 KHz Video delay : -310ms Stream size : 11.1 MiB (1%)

Audio #4 ID : 131 (0x83) Format : AC-3 Format/Info : Audio Coding 3 Duration : 8mn 4s Bit rate mode : Constant Bit rate : 192 Kbps Channel(s) : 2 channels Channel positions : L R Sampling rate : 48.0 KHz Video delay : -310ms Stream size : 11.1 MiB (1%)

Audio #5 ID : 132 (0x84) Format : AC-3 Format/Info : Audio Coding 3 Duration : 8mn 4s Bit rate mode : Constant Bit rate : 192 Kbps Channel(s) : 2 channels Channel positions : L R Sampling rate : 48.0 KHz Video delay : -310ms Stream size : 11.1 MiB (1%)

Menu


pb.wtf



pack Скачать Центр сексуальной реабилитации через торрент http://i27.fastpic.ru/big/2011/0901/90/fe9065000cbf4fb505908df66de1f390.gif Скачать фильм Центр сексуальной реабилитации через торрент бесплантно в хорошем качестве Описание: Несмотря на молодость и отменное здоровье, Брюс и Диана переживают кризис в сексуальных отношениях. Безусловно, причины надо ... 8 10 3
Info! Золотая раздача, скачанное не засчитывается.
Торрент: Зарегистрирован [2012-05-03 14:43] · скачан: 271 раз
Статус: √ проверено
Размер: 6.63 GB
Как cкачать? Как скачать Центр сексуальной реабилитации через торрент | qTorrent

28-11-2019 20:33  

Отключить всю рекламу на сайте

    Дорогой пользователь! Огромная просьба, поблагодарите релизера, оцените раздачу и оставьте свои комментарий, если Вы скачали Центр сексуальной реабилитации через торрент бесплатно! Внесите свою лепту в развитие PiratBit!
    Комментировать посты могут только пользователи прошедшие не сложную регистрацию
    Показать сообщения:    

    Центр сексуальной реабилитации через торрент
    Скачать бесплатно Центр сексуальной реабилитации
    Центр сексуальной реабилитации скачать торрент
    Центр сексуальной реабилитации смотреть онлайн
    Cкачать фильм Центр сексуальной реабилитации бесплатно
    Центр сексуальной реабилитации скачать торрент в хорошем качестве
    Центр сексуальной реабилитации смотреть онлайн бесплатно в хорошем качестве


    Вы не можете начинать темы
    Вы не можете отвечать на сообщения
    Вы не можете редактировать свои сообщения
    Вы не можете удалять свои сообщения
    Вы не можете голосовать в опросах
    Вы не можете прикреплять файлы к сообщениям
    Вы можете скачивать файлы