Ссылка на приватное зеркало нашего сайта всего за 1$. Внимание количество ограничено!!!

2 сезон

iTunes

1 сезон

1

iTunes

iTunes

iTunes

1 сезон

RePack

30

ИГРА 18+

pack

ВАЖНО

!!Акция!!

Alien_RageХит недели

RePack

MK11
pack

Забери бонус

RePack

jed

!!Акция!!

Alien_Rage

RePack

fifa19

RePack

Assassins Creed: Odyssey

RePack

NEED FOR SPEED™ PAYBACK

4 сезон

9 сезон

Бесстыжие 9 сезон

Все сериалы

все сериалы на PB.wtf

RePack

FAR CRY 5
  

12 друзей Оушена / Ocean's twelve (Стивен Содерберг) [2004 г., комедия, криминал, триллер, HD-DVDRip (720p), Дубляж + оригинал] pb.wtf

12 друзей Оушена через торрент pb.wtf

Размер: 4.77 GB | Добавлен: 8 лет 5 мес. назад | Торрент скачан:218 раз
Скачать  

03-05-2012 17:20 12 друзей Оушена Скачать торрент  

12 друзей Оушена / Ocean's twelve

Год выпуска: 2004
Страна: США
Жанр: комедия, криминал, триллер
Продолжительность: 02:05:17
Перевод: Профессиональный (полное дублирование) + оригинал

Режиссер: Стивен Содерберг

В ролях: Брэд Питт, Кэтрин Зета-Джонс, Джордж Клуни, Джулия Робертс, Мэт Дэймон, Дон Тиффани, Энн Жак, Дэвид Сонтэг, Ларри Сонтэг, Энди Гарсиа, Эд Кросс

Описание: После блестяще проведенного ограбления трех казино в Лас-Вегасе каждый из членов банды, получив свою долю из 60 миллионов долларов, припеваючи живет на украденные деньги. Но владелец казино Терри Бенедикт - не из тех, кто забывает обиды. Он по-прежнему жаждет мести. Когда Дэнни Оушена и членов его банды предает самодовольный, но действительно профессиональный вор мирового класса по кличке "ночной лис", они вновь объединяются, чтобы совершить серию международных ограблений. Осуществление их планов осложняется появлением Изабель Лаири, обольстительной сотрудницы Интерпола, настойчиво преследующей грабителей.

Качество: HD-DVDRip (720p)
Формат: MKV
Видео кодек: AVC
Аудио кодек: AC3
Видео: 1280x536, 23.976 fps, ~4996 Кбит/сек
Аудио#1: AC3, 6ch, ~448 kbps |rus|
Аудио#2: AC3, 6ch, ~640 kbps |eng|
Субтитры: английские

Общее
Уникальный идентификатор : 239329175612693944508754623533733575203 (0xB40D1F61E9FF4F3BBF5DC00B60C6FA23)
Формат : Matroska
Версия формата : Version 1
Размер файла : 4,77 Гбайт
Продолжительность : 2 ч. 5 м.
Общий поток : 5445 Кбит/сек
Дата кодирования : UTC 2007-11-17 00:24:58
Программа кодирования : mkvmerge v2.1.0 ('Another Place To Fall') built on Aug 19 2007 13:40:07
Библиотека кодирования : libebml v0.7.7 + libmatroska v0.8.1

Видео
Идентификатор : 1
Формат : AVC
Формат/Информация : Advanced Video Codec
Профиль формата : High@L5.1
Параметр CABAC формата : Да
Параметр ReFrames формата : 8 кадров
Идентификатор кодека : V_MPEG4/ISO/AVC
Продолжительность : 2 ч. 5 м.
Битрейт : 4353 Кбит/сек
Ширина : 1280 пикс.
Высота : 536 пикс.
Соотношение сторон : 2,40:1
Частота кадров : 23,976 кадр/сек
Цветовое пространство : YUV
Подвыборка цветности : 4:2:0
Битовая глубина : 8 бит
Тип развёртки : Прогрессивная
Бит/(Пиксели*Кадры) : 0.265
Размер потока : 3,72 Гбайт (78%)
Библиотека кодирования : x264 core 56 svn-682C
Настройки программы : cabac=1 / ref=5 / deblock=1:-3:-3 / analyse=0x3:0x133 / me=umh / fpel_cmp=sad / subme=7 / me-prepass=0 / brdo=1 / mixed_ref=1 / me_range=32 / chroma_me=1 / trellis=1 / 8x8dct=1 / cqm=2 / deadzone=21,11 / chroma_qp_offset=0 / threads=6 / nr=0 / decimate=0 / mbaff=0 / bframes=3 / b_pyramid=1 / b_adapt=1 / b_bias=0 / direct=3 / wpredb=1 / bime=1 / keyint=250 / keyint_min=25 / scenecut=40(pre) / rc=2pass / bitrate=4353 / ratetol=1.0 / rceq='blurCplx^(1-qComp)' / qcomp=0.60 / qpmin=10 / qpmax=51 / qpstep=4 / cplxblur=20.0 / qblur=0.5 / vbv_maxrate=29400 / vbv_bufsize=9781 / ip_ratio=1.40 / pb_ratio=1.30
Язык : English

Аудио #1
Идентификатор : 2
Формат : AC-3
Формат/Информация : Audio Coding 3
Расширение режима : CM (complete main)
Идентификатор кодека : A_AC3
Продолжительность : 2 ч. 5 м.
Вид битрейта : Постоянный
Битрейт : 448 Кбит/сек
Каналы : 6 каналов
Расположение каналов : Front: L C R, Side: L R, LFE
Частота : 48,0 КГц
Битовая глубина : 16 бит
Метод сжатия : С потерями
Размер потока : 402 Мбайт (8%)
Язык : Russian

Аудио #2
Идентификатор : 3
Формат : AC-3
Формат/Информация : Audio Coding 3
Расширение режима : CM (complete main)
Идентификатор кодека : A_AC3
Продолжительность : 2 ч. 5 м.
Вид битрейта : Постоянный
Битрейт : 640 Кбит/сек
Каналы : 6 каналов
Расположение каналов : Front: L C R, Side: L R, LFE
Частота : 48,0 КГц
Битовая глубина : 16 бит
Метод сжатия : С потерями
Размер потока : 574 Мбайт (12%)
Язык : English

Текст
Идентификатор : 4
Формат : UTF-8
Идентификатор кодека : S_TEXT/UTF8
Идентификатор кодека/Информация : UTF-8 Plain Text
Язык : English


pb.wtf



Скачать 12 друзей Оушена через торрент http://pic.kartinco.top/images/2000/c9wvc78tyk.jpg Скачать фильм 12 друзей Оушена через торрент бесплантно в хорошем качестве Описание: После блестяще проведенного ограбления трех казино в Лас-Вегасе каждый из членов банды, получив свою долю из 60 миллионов ... 10 10 5
Info! Золотая раздача, скачанное не засчитывается.
Торрент: Зарегистрирован [2012-05-03 17:20] · скачан: 218 раз
Статус: √ проверено
Размер: 4.77 GB
Как cкачать? Как скачать 12 друзей Оушена через торрент | qTorrent



Последний раз редактировалось: markfiter (2012-05-03 18:12), всего редактировалось 1 раз

28-11-2019 20:33  

Отключить всю рекламу на сайте

03-05-2012 17:42 12 друзей Оушена Скачать торрент  

а 1080,не?pb.wtf



03-05-2012 18:05 12 друзей Оушена Скачать торрент  

markfiter
Максимальный размер постера 700х700

Для изменения статуса раздачи, после исправления уведомить в со ссылкой на раздачуpb.wtf



19-11-2013 16:21 12 друзей Оушена Скачать торрент  

встань на раздачу милый человек)))))))))pb.wtf



    Дорогой пользователь! Огромная просьба, поблагодарите релизера, оцените раздачу и оставьте свои комментарий, если Вы скачали 12 друзей Оушена через торрент бесплатно! Внесите свою лепту в развитие PiratBit!
    Комментировать посты могут только пользователи прошедшие не сложную регистрацию
    Показать сообщения:    

    12 друзей Оушена через торрент
    Скачать бесплатно 12 друзей Оушена
    12 друзей Оушена скачать торрент
    12 друзей Оушена смотреть онлайн
    Cкачать фильм 12 друзей Оушена бесплатно
    12 друзей Оушена скачать торрент в хорошем качестве
    12 друзей Оушена смотреть онлайн бесплатно в хорошем качестве


    Вы не можете начинать темы
    Вы не можете отвечать на сообщения
    Вы не можете редактировать свои сообщения
    Вы не можете удалять свои сообщения
    Вы не можете голосовать в опросах
    Вы не можете прикреплять файлы к сообщениям
    Вы можете скачивать файлы