2 сезон

iTunes

MVO

1

2 сезон

iTunes

iTunes

1 сезон

RePack

30

Новинка

ВАЖНО

ИГРА 18+

pack

RePack

MK11
pack

Легкие деньги

RePack

jed

RePack

fifa19

RePack

RDR2

RePack

NEED FOR SPEED™ PAYBACK

4 сезон

9 сезон

Бесстыжие 9 сезон

Все сериалы

все сериалы на PB.wtf

RePack

FAR CRY 5

Anonymous, доброй ночи, мы не успеваем собрать деньги на оплату серверов за декабрь и январь, помогите нам пожалуйста в это трудное время. В качестве благодарности мы отключим Вам всю рекламу на сайте (укажите свой ник в строку Ваше имя)!

×
  
Magnet ссылка

[AndreaNobiliProductions] Domino Presley (Brunette fucked) [04.05.2012г., Tranny, Bodystocking, All Sex, SiteRip] pb.wtf

через торрент pb.wtf

Размер: 514 MB | Добавлен: 8 лет 8 мес. назад | Торрент скачан:142 раза
Скачать  

04-05-2012 15:27 Скачать торрент  

[AndreaNobiliProductions.com]
Domino Presley
Brunette fucked
[04.05.2012г.]

Год производства: 2012 г.
Жанр: Tranny, Bodystocking, All Sex
Продолжительность: 00:28:40

Студия: AndreaNobiliProductions.com
В ролях: Domino Presley

Качество видео: SiteRip
Формат видео: MP4
Видео кодек: AVC
Аудио кодек: AAC
Видео: 25.000 fps, 2 391 Kbps, 720x480
Аудио: 106 Kbps, 2 channels, 48.0 KHz

Описание:


The thin brunette in a one-to-one action movie !
General
Complete name : Domino Presley Brunette fucked.mp4
Format : MPEG-4
Format profile : Base Media
Codec ID : isom
File size : 514 MiB
Duration : 28mn 40s
Overall bit rate mode : Variable
Overall bit rate : 2 505 Kbps
Movie name : domino.mp4
Writing application : Lavf52.108.0

Video
ID : 1
Format : AVC
Format/Info : Advanced Video Codec
Format profile : High@L3.1
Format settings, CABAC : Yes
Format settings, ReFrames : 4 frames
Codec ID : avc1
Codec ID/Info : Advanced Video Coding
Duration : 28mn 40s
Bit rate : 2 391 Kbps
Width : 720 pixels
Height : 480 pixels
Display aspect ratio : 3:2
Frame rate mode : Constant
Frame rate : 25.000 fps
Standard : PAL
Color space : YUV
Chroma subsampling : 4:2:0
Bit depth : 8 bits
Scan type : Progressive
Bits/(Pixel*Frame) : 0.277
Stream size : 490 MiB (95%)

Audio
ID : 2
Format : AAC
Format/Info : Advanced Audio Codec
Format profile : LC
Codec ID : 40
Duration : 28mn 40s
Bit rate mode : Variable
Bit rate : 106 Kbps
Maximum bit rate : 128 Kbps
Channel(s) : 2 channels
Channel positions : Front: L R
Sampling rate : 48.0 KHz
Compression mode : Lossy
Delay relative to video : -4s 4ms
Stream size : 21.7 MiB (4%)
pb.wtf



pack Скачать через торрент http://i35.fastpic.ru/big/2012/0504/04/75cdeeb93581bfb4a9c3165c3a021804.jpg Скачать фильм [AndreaNobiliProductions] Domino Presley через торрент бесплантно в хорошем качестве Описание: The thin brunette in a one-to-one action movie ! ... 6 10 1
Info! Золотая раздача, скачанное не засчитывается.
Торрент: Зарегистрирован [2012-05-04 15:27] · скачан: 142 раз
Статус: √ проверено
Размер: 514 MB
Как cкачать? Как скачать через торрент | UTorrent

28-11-2019 20:33  

Отключить всю рекламу на сайте

    Дорогой пользователь! Огромная просьба, поблагодарите релизера, оцените раздачу и оставьте свои комментарий, если Вы скачали через торрент бесплатно! Внесите свою лепту в развитие PiratBit!
    Комментировать посты могут только пользователи прошедшие не сложную регистрацию
    Показать сообщения:    

    через торрент
    Скачать бесплатно
    скачать торрент
    смотреть онлайн
    Cкачать фильм бесплатно
    скачать торрент в хорошем качестве
    смотреть онлайн бесплатно в хорошем качестве


    Вы не можете начинать темы
    Вы не можете отвечать на сообщения
    Вы не можете редактировать свои сообщения
    Вы не можете удалять свои сообщения
    Вы не можете голосовать в опросах
    Вы не можете прикреплять файлы к сообщениям
    Вы можете скачивать файлы