Ссылка на приватное зеркало нашего сайта всего за 1$. Внимание количество ограничено!!!

2 сезон

iTunes

1 сезон

1

iTunes

iTunes

iTunes

1 сезон

RePack

30

ИГРА 18+

pack

ВАЖНО

!!Акция!!

Alien_RageХит недели

RePack

MK11
pack

Забери бонус

RePack

jed

!!Акция!!

Alien_Rage

RePack

fifa19

RePack

Assassins Creed: Odyssey

RePack

NEED FOR SPEED™ PAYBACK

4 сезон

9 сезон

Бесстыжие 9 сезон

Все сериалы

все сериалы на PB.wtf

RePack

FAR CRY 5
  

Искусство любить / Lart daimer (Эмманюэль Муре) [2011 г., комедия, BDRip (720p), Профессиональный + Оригинал] pb.wtf

Искусство любить через торрент pb.wtf

Размер: 6.35 GB | Добавлен: 8 лет 5 мес. назад | Торрент скачан:28 раз
Скачать  

04-05-2012 20:26 Искусство любить Скачать торрент  

Искусство любить / Lart daimer
«В несколько простых и не слишком простых примерах...»
Год выпуска: 2011
Страна: Франция / Centre National de la Cinematographie (CNC), Orange Cinema Series
Жанр: комедия
Продолжительность: 01:25:26
Перевод: Профессиональный + Оригинал

Режиссер: Эмманюэль Муре

В ролях: Эмманюэль Муре, Паскаль Арбийо, Ариан Аскарид, Фредерик Бель, Франсуа Клюзе, Жюли Депардье, Жюдит Годреш, Луи-До де Ланкесэ, Филипп Маньян, Станислас Мерхар

Описание: В момент, когда мы влюбляемся, тот определенный миг, производит в нас особенную музыку. Она разная для каждого и может вспомниться в неожиданные моменты.

Качество: BDRip (720p)
Формат: MKV
Видео кодек: AVC
Аудио кодек: DTS
Видео: AVC, 1280x688 (1.860), 23.976 fps, 7 600 Kbps (0.360 bit/pixel)
Аудио#1: DTS, 48.0 KHz, 6 ch, 1 510 Kbps, CBR (Russian)
Аудио#2: DTS, 48.0 KHz, 6 ch, 1 510 Kbps, CBR (French)
Субтитры: Russian

General
Unique ID : 224437014937493401853375793083328592766 (0xA8D8FF2C4C90D07DA1E7AACDA6AD7B7E)
Complete name : D:\Iskustvo ljubit.2011.P.BDRip.720p.Uniongang.tv.mkv
Format : Matroska
File size : 6.35 GiB
Duration : 1h 25mn
Overall bit rate : 10.6 Mbps
Movie name : Iskustvo ljubit.2011.P.BDRip.720p.Uniongang.tv
Encoded date : UTC 2012-05-04 17:37:39
Writing application : mkvmerge v5.3.0 ('I could have danced') built on Feb 9 2012 10:38:07
Writing library : libebml v1.2.3 + libmatroska v1.3.0

Video
ID : 1
Format : AVC
Format/Info : Advanced Video Codec
Format profile : High@L4.1
Format settings, CABAC : Yes
Format settings, ReFrames : 11 frames
Codec ID : V_MPEG4/ISO/AVC
Duration : 1h 25mn
Bit rate : 7 600 Kbps
Width : 1 280 pixels
Height : 688 pixels
Display aspect ratio : 1.860
Frame rate : 23.976 fps
Color space : YUV
Chroma subsampling : 4:2:0
Bit depth : 8 bits
Scan type : Progressive
Bits/(Pixel*Frame) : 0.360
Stream size : 4.42 GiB (70%)
Title : Iskustvo ljubit.2011.P.BDRip.720p.Uniongang.tv
Writing library : x264 core 119 r2106 07efeb4
Encoding settings : cabac=1 / ref=11 / deblock=1:-3:-3 / analyse=0x3:0x113 / me=umh / subme=9 / psy=1 / psy_rd=1.10:1.00 / mixed_ref=1 / me_range=32 / chroma_me=1 / trellis=2 / 8x8dct=1 / cqm=0 / deadzone=21,11 / fast_pskip=0 / chroma_qp_offset=-4 / threads=6 / sliced_threads=0 / nr=0 / decimate=1 / interlaced=0 / bluray_compat=0 / constrained_intra=0 / bframes=9 / b_pyramid=2 / b_adapt=2 / b_bias=0 / direct=3 / weightb=1 / open_gop=0 / weightp=2 / keyint=250 / keyint_min=23 / scenecut=40 / intra_refresh=0 / rc=2pass / mbtree=0 / bitrate=7600 / ratetol=1.0 / qcomp=0.60 / qpmin=0 / qpmax=69 / qpstep=4 / cplxblur=20.0 / qblur=0.5 / ip_ratio=1.40 / pb_ratio=1.30 / aq=1:1.00
Language : Russian

Audio #1
ID : 2
Format : DTS
Format/Info : Digital Theater Systems
Codec ID : A_DTS
Duration : 1h 25mn
Bit rate mode : Constant
Bit rate : 1 510 Kbps
Channel(s) : 6 channels
Channel positions : Front: L C R, Side: L R, LFE
Sampling rate : 48.0 KHz
Bit depth : 24 bits
Compression mode : Lossy
Stream size : 923 MiB (14%)
Language : Russian

Audio #2
ID : 3
Format : DTS
Format/Info : Digital Theater Systems
Codec ID : A_DTS
Duration : 1h 25mn
Bit rate mode : Constant
Bit rate : 1 510 Kbps
Channel(s) : 6 channels
Channel positions : Front: L C R, Side: L R, LFE
Sampling rate : 48.0 KHz
Bit depth : 24 bits
Compression mode : Lossy
Stream size : 923 MiB (14%)
Language : French

Text
ID : 4
Format : PGS
Codec ID : S_HDMV/PGS
Codec ID/Info : The same subtitle format used on BDs/HD-DVDs
Language : Russian

Menu
00:00:00.000 : en:00:00:00.000
00:05:30.372 : en:00:05:30.372
00:12:19.530 : en:00:12:19.530
00:18:04.583 : en:00:18:04.583
00:26:21.330 : en:00:26:21.330
00:32:59.060 : en:00:32:59.060
00:35:40.972 : en:00:35:40.972
00:38:36.231 : en:00:38:36.231
00:47:31.265 : en:00:47:31.265
00:52:07.082 : en:00:52:07.082
00:57:21.188 : en:00:57:21.188
01:02:46.513 : en:01:02:46.513
01:08:00.410 : en:01:08:00.410
01:17:36.068 : en:01:17:36.068
01:22:50.799 : en:01:22:50.799

pb.wtf



Скачать Искусство любить через торрент http://rghost.ru/37917487/image.png Скачать фильм Искусство любить через торрент бесплантно в хорошем качестве Описание: В момент, когда мы влюбляемся, тот определенный миг, производит в нас особенную музыку. Она разная для каждого и может ... 5 10 1
Info! Золотая раздача, скачанное не засчитывается.
Торрент: Зарегистрирован [2012-05-04 20:26] · скачан: 28 раз
Статус: √ проверено
Размер: 6.35 GB
Как cкачать? Как скачать Искусство любить через торрент | qTorrent

28-11-2019 20:33  

Отключить всю рекламу на сайте

04-05-2012 20:46 Искусство любить Скачать торрент  

второй скрин шедевр))))pb.wtf



04-05-2012 23:30 Искусство любить Скачать торрент  

aleksanpetelin писал(а):

второй скрин шедевр))))

Тоже оч понравился !pb.wtf



    Дорогой пользователь! Огромная просьба, поблагодарите релизера, оцените раздачу и оставьте свои комментарий, если Вы скачали Искусство любить через торрент бесплатно! Внесите свою лепту в развитие PiratBit!
    Комментировать посты могут только пользователи прошедшие не сложную регистрацию
    Показать сообщения:    

    Искусство любить через торрент
    Скачать бесплатно Искусство любить
    Искусство любить скачать торрент
    Искусство любить смотреть онлайн
    Cкачать фильм Искусство любить бесплатно
    Искусство любить скачать торрент в хорошем качестве
    Искусство любить смотреть онлайн бесплатно в хорошем качестве


    Вы не можете начинать темы
    Вы не можете отвечать на сообщения
    Вы не можете редактировать свои сообщения
    Вы не можете удалять свои сообщения
    Вы не можете голосовать в опросах
    Вы не можете прикреплять файлы к сообщениям
    Вы можете скачивать файлы