2 сезон

iTunes

MVO

1

2 сезон

iTunes

iTunes

1 сезон

RePack

30

Новинка

ВАЖНО

ИГРА 18+

pack

RePack

MK11
pack

Легкие деньги

RePack

jed

RePack

fifa19

RePack

RDR2

RePack

NEED FOR SPEED™ PAYBACK

4 сезон

9 сезон

Бесстыжие 9 сезон

Все сериалы

все сериалы на PB.wtf

RePack

FAR CRY 5

Anonymous, доброе утро, мы не успеваем собрать деньги на оплату серверов за декабрь и январь, помогите нам пожалуйста в это трудное время. В качестве благодарности мы отключим Вам всю рекламу на сайте (укажите свой ник в строку Ваше имя)!

×
  
Magnet ссылка

[ShemaleStrokers] TS Jordan Jay (Has Been A Very Naughty Girl!) [2012 г., Shemale, Solo, Masturbation, SiteRip] pb.wtf

через торрент pb.wtf

Размер: 292 MB | Добавлен: 8 лет 8 мес. назад | Торрент скачан:52 раза
Скачать  

04-05-2012 22:30 Скачать торрент  

[ShemaleStrokers.com]
TS Jordan Jay
Has Been A Very Naughty Girl!

Год производства: 2012 г.
Жанр: Shemale, Solo, Masturbation
Продолжительность: 00:15:13

Студия: ShemaleStrokers.com
В ролях: TS Jordan Jay

Качество видео: SiteRip
Формат видео: WMV
Видео кодек: Windows Media
Аудио кодек: WMA
Видео: 29.970 fps, 2 500 Kbps, 960x540
Аудио: 128 kbps, 44 kHz, stereo CBR

Описание:
Naughty T-Girl Jordan has been sentenced to detention but her professor hasn't arrived yet.
She decides to pass the time by getting naked and naughty right there in his office.
She writes on the board how much she loves cock, then she begins to play with her own tranny clit.
She shoves her fingers in her tight little butt-hole and pinches her sensitive nipples and strokes her big shemale cock.
Eventually she leaves a nice gooey mess for the teacher all over one of the desks.

General
Complete name : shemale-jordanjay2-scene.wmv
Format : Windows Media
File size : 292 MiB
Duration : 15mn 13s
Overall bit rate : 2 683 Kbps
Maximum Overall bit rate : 2 643 Kbps
Encoded date : UTC 2012-05-02 19:38:35.000

Video
ID : 1
Format : VC-1
Format profile : MP
Codec ID : WMV3
Codec ID/Info : Windows Media Video 9
Codec ID/Hint : WMV3
Description of the codec : Windows Media Video 9 - 2-pass VBR
Duration : 15mn 13s
Bit rate : 2 500 Kbps
Width : 960 pixels
Height : 540 pixels
Display aspect ratio : 16:9
Frame rate : 29.970 fps
Bit depth : 8 bits
Scan type : Progressive
Compression mode : Lossy
Bits/(Pixel*Frame) : 0.161
Stream size : 272 MiB (93%)

Audio
ID : 2
Format : WMA
Format version : Version 2
Codec ID : 161
Codec ID/Info : Windows Media Audio
Description of the codec : Windows Media Audio 9 - 128 kbps, 44 kHz, stereo CBR
Duration : 15mn 13s
Bit rate : 128 Kbps
Channel(s) : 2 channels
Sampling rate : 44.1 KHz
Bit depth : 16 bits
Stream size : 13.9 MiB (5%)
pb.wtf



pack Скачать через торрент http://i34.fastpic.ru/big/2012/0428/14/d87025881b693932b8a92d68ab1cf414.jpg Скачать фильм [ShemaleStrokers] TS Jordan Jay через торрент бесплантно в хорошем качестве Описание:Naughty T-Girl Jordan has been sentenced to detention but her professor hasn't arrived yet.She decides to pass the time by getting ... 5 10 1
Info! Золотая раздача, скачанное не засчитывается.
Торрент: Зарегистрирован [2012-05-04 22:30] · скачан: 52 раз
Статус: √ проверено
Размер: 292 MB
Как cкачать? Как скачать через торрент | UTorrent

28-11-2019 20:33  

Отключить всю рекламу на сайте

    Дорогой пользователь! Огромная просьба, поблагодарите релизера, оцените раздачу и оставьте свои комментарий, если Вы скачали через торрент бесплатно! Внесите свою лепту в развитие PiratBit!
    Комментировать посты могут только пользователи прошедшие не сложную регистрацию
    Показать сообщения:    

    через торрент
    Скачать бесплатно
    скачать торрент
    смотреть онлайн
    Cкачать фильм бесплатно
    скачать торрент в хорошем качестве
    смотреть онлайн бесплатно в хорошем качестве


    Вы не можете начинать темы
    Вы не можете отвечать на сообщения
    Вы не можете редактировать свои сообщения
    Вы не можете удалять свои сообщения
    Вы не можете голосовать в опросах
    Вы не можете прикреплять файлы к сообщениям
    Вы можете скачивать файлы