Мега распродажа FORZA HORIZON 4 ULTIMATE+ВСЕ DLC+ОНЛАЙН всего за 499р. 349 руб. (супер цена). Внимание количество ограничено!!!

Лицензия

30

iTunes

мы

iTunes

1

1 сезон

Чернобыль

1 сезон

Ральф против интернета

MVO

Покемон. Детектив Пикачу

8 сезон

Игра престолов

iTunes

1+1

ИГРА 18+

pack

ВАЖНО

!!Акция!!

Alien_RageХит недели

RePack

Resident Evil 21
pack

RePack

Metro:Exodus

!!Акция!!

Alien_Rage

RePack

fifa19

RePack

Assassins Creed: Odyssey

RePack

NEED FOR SPEED™ PAYBACK

3 сезон

9 сезон

Бесстыжие 9 сезон

Все сериалы

все сериалы на PB.wtf

RePack

FAR CRY 5
Ребята, катастрофически не хватает 2730р. для оплаты серверов за МАЙ (всвязи с блокировками трафик упал в 3 раза), 1-2р., выручайте.
  

Грязные святые / Los santos sucios (Луис Ортега) [2009 г., Притча, драма, постапокалипсис, DVDRip, VO] pb.wtf

Грязные святые через торрент pb.wtf

Размер: 1.42 GB | Добавлен: 7 лет 1 мес. назад | Торрент скачан:52 раза
Скачать  

07-05-2012 09:44 Грязные святые Скачать торрент  

Грязные святые / Los santos sucios

Год выпуска: 2009
Страна: Аргентина
Жанр: Притча, драма, постапокалипсис
Продолжительность: 01:25:06
Перевод: Любительский (одноголосый)[den904]


Режиссер: Луис Ортега
Продюссер: Диего Корсини, Игнасио Рей, Диего Дубковский,
Сценарий: Луис Ортега, Emir Seguel, Alejandro Urdapilleta

Премьера в мире: 12 сентября 2009




В ролях: Луис Ортега Alejandro Urdapilleta Мартина Жункаделла Emir Seguel Ruben Albarracín Brian Buley Оскар Алегре
Описание: Третья особенность апокалиптической картины Луиса Ортеги следует группа из пяти выживших, как они отправляются в путешествие, которое заставит их решать свои страхи, мечты и желания в их стремлении к спасению через реку Fijman.

Человечество волновала не возможность спасения, а уверенность в катастрофе. Когда война закончилась, были и те, кого не убили и кто не был спасён силами порядка. Для них единственной надеждой было пересечь великие воды...

Качество: DVDRip
Формат: AVI
Видео кодек: XviD
Аудио кодек: MP3
Видео: 640x312 (2.05:1), 25 fps, 2065 kbps avg, 0.41 bit/pixel
Аудио#1: Русский, 48 KHz, MPEG layer 3, 320 kbps
Субтитры: Английские (Вшитые)





Полное имя :Los_santos_sucios_2009.avi
Формат : AVI
Формат/Информация : Audio Video Interleave
Размер файла : 1,42 Гбайт
Продолжительность : 1 ч. 25 м.
Общий поток : 2396 Кбит/сек
Программа кодирования : VirtualDubMod 1.5.10.2 (build 2540/release)
Библиотека кодирования : VirtualDubMod build 2540/release

Видео
Идентификатор : 0
Формат : MPEG-4 Visual
Профиль формата : Advanced Simple@L5
Параметр BVOP формата : 1
Параметр QPel формата : Нет
Параметр GMC формата : Без точки перехода
Параметр матрицы формата : Default (MPEG)
Идентификатор кодека : XVID
Идентификатор кодека/Подсказка : XviD
Продолжительность : 1 ч. 25 м.
Битрейт : 2066 Кбит/сек
Ширина : 640 пикселей
Высота : 312 пикселей
Соотношение сторон : 2,051
Частота кадров : 25,000 кадров/сек
Цветовое пространство : YUV
Субдискретизация насыщенности : 4:2:0
Битовая глубина : 8 бит
Тип развёртки : Прогрессивная
Метод сжатия : С потерями
Бит/(Пиксели*Кадры) : 0.414
Размер потока : 1,23 Гбайт (86%)
Библиотека кодирования : XviD 1.2.1 (UTC 2008-12-04)

Аудио
Идентификатор : 1
Формат : MPEG Audio
Версия формата : Version 1
Профиль формата : Layer 3
Режим : Joint stereo
Идентификатор кодека : 55
Идентификатор кодека/Подсказка : MP3
Продолжительность : 1 ч. 25 м.
Вид битрейта : Постоянный
Битрейт : 320 Кбит/сек
Каналы : 2 канала
Частота : 48,0 КГц
Метод сжатия : С потерями
Размер потока : 195 Мбайт (13%)
Выравнивание : Соединение по промежуткам
Продолжительность промежутка : 40 мс. (1,00 видеокадр)
Время предзагрузки промежутка : 504 мс.


pb.wtf



Скачать Грязные святые через торрент http://i37.fastpic.ru/big/2012/0507/21/cfb86aa09e78b0c94334a3aa4550e121.gif Скачать фильм Грязные святые через торрент бесплантно в хорошем качестве Описание: Третья особенность апокалиптической картины Луиса Ортеги следует группа из пяти выживших, как они отправляются в путешествие, ... 5 10 1
Info! Золотая раздача, скачанное не засчитывается.
Торрент: Зарегистрирован [2012-05-07 09:44] · скачан: 52 раз
Статус: √ проверено
Размер: 1.42 GB
Как cкачать? Как скачать Грязные святые через торрент | qTorrent


>> Регистрируемся здесь <<






Отзывы и комментарии о схеме читаем и пишем здесь: ---> Отзывы и комментарии о схеме

Новые благодарочки в телеграм довольных пользователей:
скриншот   скриншот   скриншот   скриншот   скриншот
    Дорогой пользователь! Огромная просьба, поблагодарите релизера, оцените раздачу и оставьте свои комментарий, если Вы скачали Грязные святые через торрент бесплатно! Внесите свою лепту в развитие PiratBit!
    Комментировать посты могут только пользователи прошедшие не сложную регистрацию
    Показать сообщения:    

    Грязные святые через торрент
    Скачать бесплатно Грязные святые
    Грязные святые скачать торрент
    Грязные святые смотреть онлайн
    Cкачать фильм Грязные святые бесплатно
    Грязные святые скачать торрент в хорошем качестве
    Грязные святые смотреть онлайн бесплатно в хорошем качестве


    Вы не можете начинать темы
    Вы не можете отвечать на сообщения
    Вы не можете редактировать свои сообщения
    Вы не можете удалять свои сообщения
    Вы не можете голосовать в опросах
    Вы не можете прикреплять файлы к сообщениям
    Вы можете скачивать файлы