2 сезон

iTunes

MVO

1

2 сезон

iTunes

iTunes

1 сезон

RePack

30

Новинка

ВАЖНО

ИГРА 18+

pack

RePack

MK11
pack

Легкие деньги

RePack

jed

RePack

fifa19

RePack

RDR2

RePack

NEED FOR SPEED™ PAYBACK

4 сезон

9 сезон

Бесстыжие 9 сезон

Все сериалы

все сериалы на PB.wtf

RePack

FAR CRY 5

Anonymous, доброй ночи, мы не успеваем собрать деньги на оплату серверов за декабрь и январь, помогите нам пожалуйста в это трудное время. В качестве благодарности мы отключим Вам всю рекламу на сайте (укажите свой ник в строку Ваше имя)!

×
  
Magnet ссылка

Дикая Южная Америка (4 из 6) / Wild South America [2003 г., Документальный, природа, HDTV, 720p, VO] pb.wtf

Дикая Южная Америка через торрент pb.wtf

Размер: 5.36 GB | Добавлен: 8 лет 8 мес. назад | Торрент скачан:2 раза
Скачать  

07-05-2012 14:39 Дикая Южная Америка Скачать торрент  

Дикая Южная Америка (4 из 6) / Wild South America 720p

Год выпуска: 2003
Страна: Великобритания
Жанр: Документальный, природа
Продолжительность: 4*~48мин
Перевод: Профессиональный (одноголосый)

Описание: От Антарктики до экватора, от тёплых морей до сверкающих горных вершин, новый документальный сериал "Южная Америка" во всей красе покажет вам просторы загадочного южноамериканского континента. Именно здесь протекает известная всем река Амазонка, скрытая от посторонних глаз непроходимыми джунглями и будоражащая умы величайших путешественников и авантюристов всего мира. А ведь до сих пор человечество не постигло всех тайн амазонских джунглей, большая часть которых остаётся неисследованной. Именно в Южной Америке расположена самая длинная горная гряда Анды со множеством действующих вулканов, время от времени извергающих лаву и вулканический пепел, и раскалённая пустыня Атакама - одно из самых засушливых мест нашей планеты.
Чтобы показать всё это великолепие над фильмом работала высококлассная группа операторов, вооружённая по последнему слову техники, что позволит вам в полной мере насладиться красотой южноамериканского континента и проникнуть в самое сердце материка.
1. Затерянные миры
Эта серия рассказывает о том, насколько контрастен, но в то же время гармоничен мир живой природы в разных уголках южноамериканского континента, позволяя поближе познакомиться с уникальными животными и проследить за их привычками и повадками, обусловленными средой обитания.

2. Великая Амазонка
Поистине поражает воображение путешественника бассейн реки Амазонки. Это действительно уникальная речная система: Амазонка пересекает практически весь континент и принимает в себя воды многочисленных притоков. Количество известных видов рыб, населяющих эту могучую реку, в десятки раз превышает европейские.

3. Внутренние равнины
Великие южноамериканские равнины стали местом обитания для множества известных по всему миру экзотических представителей живой природы. Именно здесь обитают быстрые и ловкие ягуары, смертельно опасные анаконды, закованные в мощные панцири, неуязвимые броненосцы и многие-многие другие.

4. Анды
Анды - самая длинная в мире горная гряда, тянутся на 9000 километров, почти по всей длине материка от тропиков до субантарктического пояса. Вершины этих гор покрыты снегом круглый год даже в экваториальной зоне. Можно сказать, что живущие здесь представители животного мира в прямом смысле слова бросают вызов самой природе, приспосабливаясь к, казалось бы, невыносимым для всего живого условиям обитания.
Качество: HDTV
Формат: MKV
Видео кодек: Другой MPEG4
Аудио кодек: AC3
Видео: 1280*720, 25 fps, 3648 Kbps, 25.000 fps
Аудио#1: Russian, ac3, 192 kbps, 2 channels, 48KHz










Format : Matroska
File size : 1.33 GiB
Duration : 48mn 43s
Overall bit rate : 3 918 Kbps

Video
Format/Info : Advanced Video Codec (AVC)
Format profile : Baseline@L1.3
Format settings, CABAC : No
Format settings, ReFrames : 1 frame
Muxing mode : Header stripping
Codec ID : V_MPEG4/ISO/AVC
Duration : 48mn 43s
Bit rate : 3 648 Kbps
Width : 1 280 pixels
Height : 720 pixels
Display aspect ratio : 16:9
Frame rate : 25.000 fps
Color space : YUV
Chroma subsampling : 4:2:0
Bit depth : 8 bits
Scan type : Progressive
Bits/(Pixel*Frame) : 0.158
Stream size : 1.24 GiB (93%)

Audio
Format/Info : Audio Coding 3 (AC-3)
Mode extension : CM (complete main)
Muxing mode : Header stripping
Codec ID : A_AC3
Duration : 48mn 43s
Bit rate mode : Constant
Bit rate : 192 Kbps
Channel(s) : 2 channels
Channel positions : Front: L R
Sampling rate : 48.0 KHz
Bit depth : 16 bits
Compression mode : Lossy
Stream size : 66.9 MiB (5%)
Language : Russian

pb.wtf



Скачать Дикая Южная Америка через торрент http://firepic.org/images/2011-04/111s9o8v.jpg Скачать фильм Дикая Южная Америка через торрент бесплантно в хорошем качестве Описание: От Антарктики до экватора, от тёплых морей до сверкающих горных вершин, новый документальный сериал "Южная Америка" во всей красе ... 5 10 1
Info! Золотая раздача, скачанное не засчитывается.
Торрент: Зарегистрирован [2012-05-07 14:39] · скачан: 2 раз
Статус: √ проверено
Размер: 5.36 GB
Как cкачать? Как скачать Дикая Южная Америка через торрент | UTorrent

% Раздел Тема Автор DL S | L
BBC [ 4.11 GB ] Дикая Южная Америка / Wild South America / Серии: 1-6 из 6 [2003 документальный DVDRip] markfiter Скачать
1 | 0

28-11-2019 20:33  

Отключить всю рекламу на сайте

    Дорогой пользователь! Огромная просьба, поблагодарите релизера, оцените раздачу и оставьте свои комментарий, если Вы скачали Дикая Южная Америка через торрент бесплатно! Внесите свою лепту в развитие PiratBit!
    Комментировать посты могут только пользователи прошедшие не сложную регистрацию
    Показать сообщения:    

    Дикая Южная Америка через торрент
    Скачать бесплатно Дикая Южная Америка
    Дикая Южная Америка скачать торрент
    Дикая Южная Америка смотреть онлайн
    Cкачать фильм Дикая Южная Америка бесплатно
    Дикая Южная Америка скачать торрент в хорошем качестве
    Дикая Южная Америка смотреть онлайн бесплатно в хорошем качестве


    Вы не можете начинать темы
    Вы не можете отвечать на сообщения
    Вы не можете редактировать свои сообщения
    Вы не можете удалять свои сообщения
    Вы не можете голосовать в опросах
    Вы не можете прикреплять файлы к сообщениям
    Вы можете скачивать файлы