Ссылка на приватное зеркало нашего сайта всего за 1$. Внимание количество ограничено!!!

2 сезон

iTunes

1 сезон

1

2 сезон

2 сезон

iTunes

1 сезон

RePack

30

Новинка

ВАЖНО

ИГРА 18+

pack

RePack

MK11
pack

Забери бонус

RePack

jed

!!Акция!!

Alien_Rage

RePack

fifa19

RePack

Assassins Creed: Odyssey

RePack

NEED FOR SPEED™ PAYBACK

4 сезон

9 сезон

Бесстыжие 9 сезон

Все сериалы

все сериалы на PB.wtf

RePack

FAR CRY 5
  

Инаугурация президента Российской Федерации Владимира Путина (1-й канал) [2012 г., документальный, SATRip] pb.wtf

Инаугурация президента Российской Федерации Владимира Путина через торрент pb.wtf

Размер: 1.92 GB | Добавлен: 8 лет 6 мес. назад | Торрент скачан:23 раза
Скачать  

07-05-2012 14:53 Инаугурация президента Российской Федерации Владимира Путина Скачать торрент  

Инаугурация президента Российской Федерации Владимира Путина 07.05.2012

Год выпуска: 2012
Страна: Россия
Жанр: документальный
Перевод: Не требуется

Режиссер: 1-й канал

Описание: Торжественная церемония вступления в должность Президента Российской Федерации В.В. Путина
Инаугурация президента России – это торжественная церемония присяги и вступления в должность главы государства. Согласно закону "О выборах президента Российской Федерации", инаугурация проводится по истечении четырех (а со времени внесения соответствующей поправки в Конституцию РФ — шести) лет с момента вступления в должность предыдущего президента.
Церемония торжественного вступления в должность президента РФ проводится на тридцатый день после того, как Центральная избирательная комиссия огласит официальные результаты голосования. С 2000 года церемония инаугурации президента проводится 7 мая.

Продолжительность: 01:01:37
Качество: SATRip
Формат: MPEG
Видео кодек: MPEG2
Аудио кодек: MPEG Audio
Видео: 720х576, 16:9, 25.000 fps, ~4173 Кбит/сек
Аудио#1: 192 Кбит/сек, 48.0 KHz, 2 channels
General
Complete name : H:\Video\AVI\Инаугурация президента РФ Владимира Путина.mpg
Format : MPEG-PS
File size : 1.92 GiB
Duration : 1h 1mn
Overall bit rate : 4 454 Kbps

Video
ID : 224 (0xE0)
Format : MPEG Video
Format version : Version 2
Format profile : Main@Main
Format settings, Matrix : Default
Duration : 1h 1mn
Bit rate mode : Variable
Bit rate : 4 085 Kbps
Nominal bit rate : 15.0 Mbps
Width : 720 pixels
Height : 576 pixels
Display aspect ratio : 16:9
Frame rate : 25.000 fps
Standard : PAL
Colorimetry : 4:2:0
Scan type : Interlaced
Scan order : Top Field First
Bits/(Pixel*Frame) : 0.394
Stream size : 1.76 GiB (92%)

Audio
ID : 192 (0xC0)
Format : MPEG Audio
Format version : Version 1
Format profile : Layer 2
Duration : 1h 1mn
Bit rate mode : Constant
Bit rate : 192 Kbps
Channel(s) : 2 channels
Sampling rate : 48.0 KHz
Resolution : 16 bits
Stream size : 84.6 MiB (4%)
pb.wtf



Скачать Инаугурация президента Российской Федерации Владимира Путина через торрент http://i38.fastpic.ru/big/2012/0507/89/9c65a0b7e6f71e49af7c31f97cab6289.jpg Скачать фильм Инаугурация президента Российской Федерации Владимира Путина через торрент бесплантно в хорошем качестве Описание: Торжественная церемония вступления в должность Президента Российской Федерации В.В. ПутинаИнаугурация президента России – это ... 1 10 1
Info! Золотая раздача, скачанное не засчитывается.
Торрент: Зарегистрирован [2012-05-07 14:53] · скачан: 23 раз
Статус: √ проверено
Размер: 1.92 GB
Как cкачать? Как скачать Инаугурация президента Российской Федерации Владимира Путина через торрент | qTorrent



Последний раз редактировалось: gkvtaper (2012-05-07 16:21), всего редактировалось 2 раз(а)

28-11-2019 20:33  

Отключить всю рекламу на сайте

07-05-2012 16:03 Инаугурация президента Российской Федерации Владимира Путина Скачать торрент  

gkvtaper
Продолжительность? Видео - частота кадра? Аудио - частота звука, сколько каналов? Выложи информацию МедиаИнфо.pb.wtf



07-05-2012 16:52 Инаугурация президента Российской Федерации Владимира Путина Скачать торрент  

В топку!pb.wtf



07-05-2012 20:38 Инаугурация президента Российской Федерации Владимира Путина Скачать торрент  

сжечь))pb.wtf



17-05-2012 16:27 Инаугурация президента Российской Федерации Владимира Путина Скачать торрент  

Нет,через год будем смотреть и пальчики загибать...
готово
готово
готово
....pb.wtf



    Дорогой пользователь! Огромная просьба, поблагодарите релизера, оцените раздачу и оставьте свои комментарий, если Вы скачали Инаугурация президента Российской Федерации Владимира Путина через торрент бесплатно! Внесите свою лепту в развитие PiratBit!
    Комментировать посты могут только пользователи прошедшие не сложную регистрацию
    Показать сообщения:    

    Инаугурация президента Российской Федерации Владимира Путина через торрент
    Скачать бесплатно Инаугурация президента Российской Федерации Владимира Путина
    Инаугурация президента Российской Федерации Владимира Путина скачать торрент
    Инаугурация президента Российской Федерации Владимира Путина смотреть онлайн
    Cкачать фильм Инаугурация президента Российской Федерации Владимира Путина бесплатно
    Инаугурация президента Российской Федерации Владимира Путина скачать торрент в хорошем качестве
    Инаугурация президента Российской Федерации Владимира Путина смотреть онлайн бесплатно в хорошем качестве


    Вы не можете начинать темы
    Вы не можете отвечать на сообщения
    Вы не можете редактировать свои сообщения
    Вы не можете удалять свои сообщения
    Вы не можете голосовать в опросах
    Вы не можете прикреплять файлы к сообщениям
    Вы можете скачивать файлы