Ссылка на приватное зеркало всего за 1$. Внимание количество ограничено!!!

iTunes

iTunes

iTunes

1

iTunes

iTunes

iTunes

iTunes

iTunes

30
pack

$ от Little Big

ВАЖНО

!!Акция!!

Alien_RageХит недели

RePack

Resident Evil 21

ИГРА 18+

pack

RePack

jed

!!Акция!!

Alien_Rage

RePack

fifa19

RePack

Assassins Creed: Odyssey

RePack

NEED FOR SPEED™ PAYBACK

4 сезон

9 сезон

Бесстыжие 9 сезон

Все сериалы

все сериалы на PB.wtf

RePack

FAR CRY 5
  

Терминал / The Terminal (Стивен Спилберг) [2004 г., драма, мелодрама, комедия, HDTVRip (720p), Дубляж] pb.wtf

Терминал через торрент pb.wtf

Размер: 4.7 GB | Добавлен: 8 лет 2 мес. назад | Торрент скачан:119 раз
Скачать  

09-05-2012 07:11 Терминал Скачать торрент  

Терминал / The Terminal

Год выпуска: 2004
Страна: США
Жанр: драма, мелодрама, комедия
Продолжительность: 02:03:34
Перевод: Профессиональный (полное дублирование)

Режиссер: Стивен Спилберг

В ролях: Том Хэнкс, Кэтрин Зета-Джонс, Стэнли Туччи, Чи МакБрайд, Диего Луна, Зои Салдана

Описание: Этот фильм рассказывает историю Виктора Наворски отправившегося в Нью-Йорк из Восточной Европы. Пока Виктор летел в самолете, на его родине произошел государственный переворот. Оказавшись в международном аэропорту имени Джона Кеннеди с паспортом ниоткуда, он не имеет права въехать в Соединенные Штаты и должен коротать свои дни и ночи в гостинице аэропорта, пока война в его родной стране не закончится. Тянутся недели и месяцы, и Виктор обнаруживает, что небольшой мирок терминала может быть наполнен абсурдом, щедростью, амбициями, развлечения, желанием сохранить свой статус, интуитивной прозорливостью и даже любовью к очаровательной стюардессе Амелии. Виктору удается завоевать симпатии всех, кроме одного человека – чиновника аэропорта Фрэнка Диксона, который считает его бюрократической ошибкой, проблемой, которую он не может контролировать, но от которой жаждет избавиться...

Качество: HDTVRip (720p)
Формат: MKV
Видео кодек: AVC
Аудио кодек: AC3
Видео: 1280x704, 25 fps, ~4675 kbps
Аудио#1: 48 kHz, AC3 (6ch), ~384 kbps |rus|
Аудио#2: 48 kHz, AC3 (6ch), ~384 kbps |eng| - отдельно
Субтитры: английские

Общее
Уникальный идентификатор : 194104507694650510244182268368766164168 (0x92072B1A5C14E1FCB63C8D1F2628DCC8)
Формат : Matroska
Версия формата : Version 1
Размер файла : 4,37 Гбайт
Продолжительность : 2 ч. 3 м.
Общий поток : 5064 Кбит/сек
Дата кодирования : UTC 2007-08-25 09:13:01
Программа кодирования : mkvmerge v2.0.2 ('You're My Flame') built on Feb 21 2007 23:40:55
Библиотека кодирования : libebml v0.7.7 + libmatroska v0.8.1

Видео
Идентификатор : 1
Формат : AVC
Формат/Информация : Advanced Video Codec
Профиль формата : High@L5.1
Параметр CABAC формата : Да
Параметр ReFrames формата : 8 кадров
Параметры GOP формата : M=1, N=2
Идентификатор кодека : V_MPEG4/ISO/AVC
Продолжительность : 2 ч. 3 м.
Битрейт : 4675 Кбит/сек
Ширина : 1280 пикс.
Высота : 704 пикс.
Соотношение сторон : 16:9
Частота кадров : 25,000 кадр/сек
Цветовое пространство : YUV
Подвыборка цветности : 4:2:0
Битовая глубина : 8 бит
Тип развёртки : Прогрессивная
Бит/(Пиксели*Кадры) : 0.208
Размер потока : 3,95 Гбайт (90%)
Заголовок : The Terminal (2004)
Библиотека кодирования : x264 core 54 svn-606
Настройки программы : cabac=1 / ref=5 / deblock=1:-1:-1 / analyse=0x3:0x113 / me=hex / subme=7 / brdo=1 / mixed_ref=1 / me_range=16 / chroma_me=1 / trellis=1 / 8x8dct=1 / cqm=0 / deadzone=21,11 / chroma_qp_offset=0 / slices=3 / nr=0 / decimate=1 / mbaff=0 / bframes=3 / b_pyramid=1 / b_adapt=1 / b_bias=0 / direct=1 / wpredb=1 / bime=1 / keyint=250 / keyint_min=25 / scenecut=40 / rc=2pass / bitrate=4675 / ratetol=1.0 / rceq='blurCplx^(1-qComp)' / qcomp=0.60 / qpmin=10 / qpmax=51 / qpstep=4 / cplxblur=20.0 / qblur=0.5 / ip_ratio=1.40 / pb_ratio=1.30

Аудио
Идентификатор : 2
Формат : AC-3
Формат/Информация : Audio Coding 3
Расширение режима : CM (complete main)
Идентификатор кодека : A_AC3
Продолжительность : 2 ч. 3 м.
Вид битрейта : Постоянный
Битрейт : 384 Кбит/сек
Каналы : 6 каналов
Расположение каналов : Front: L C R, Side: L R, LFE
Частота : 48,0 КГц
Битовая глубина : 16 бит
Метод сжатия : С потерями
Размер потока : 339 Мбайт (8%)
Заголовок : DD 5.1 (384 Kbps)
Язык : Russian

Текст
Идентификатор : 3
Формат : UTF-8
Идентификатор кодека : S_TEXT/UTF8
Идентификатор кодека/Информация : UTF-8 Plain Text
Язык : English
pb.wtf



Скачать Терминал через торрент http://pic.kartinco.top/images/2000/f16hpp7jn3.jpg Скачать фильм Терминал через торрент бесплантно в хорошем качестве Описание: Этот фильм рассказывает историю Виктора Наворски отправившегося в Нью-Йорк из Восточной Европы. Пока Виктор летел в самолете, на ... 10 10 4
Info! Золотая раздача, скачанное не засчитывается.
Торрент: Зарегистрирован [2012-05-09 07:11] · скачан: 119 раз
Статус: √ проверено
Размер: 4.7 GB
Как cкачать? Как скачать Терминал через торрент | qTorrent

% Раздел Тема Автор DL S | L
Фильмы (HD 720p, 1080p) (48-60 fps) [ 14.1 GB ] Терминал / The Terminal [2004 BDRip 1080p / 60 FPS ] Tiberiumsun69 Скачать
2 | 0
Фильмы (Blu-ray, BD-Remux, HDDVD) [ 31.69 GB ] Терминал / The Terminal [2004 BDRemux лицензия] flatro1 Скачать
1 | 0
Фильмы 2001-2005 [ 2.05 GB ] Терминал / The Terminal [2004 HDRip лицензия] ahm77 Скачать
1 | 0

28-11-2019 20:33  

Отключить всю рекламу на сайте

    Дорогой пользователь! Огромная просьба, поблагодарите релизера, оцените раздачу и оставьте свои комментарий, если Вы скачали Терминал через торрент бесплатно! Внесите свою лепту в развитие PiratBit!
    Комментировать посты могут только пользователи прошедшие не сложную регистрацию
    Показать сообщения:    

    Терминал через торрент
    Скачать бесплатно Терминал
    Терминал скачать торрент
    Терминал смотреть онлайн
    Cкачать фильм Терминал бесплатно
    Терминал скачать торрент в хорошем качестве
    Терминал смотреть онлайн бесплатно в хорошем качестве


    Вы не можете начинать темы
    Вы не можете отвечать на сообщения
    Вы не можете редактировать свои сообщения
    Вы не можете удалять свои сообщения
    Вы не можете голосовать в опросах
    Вы не можете прикреплять файлы к сообщениям
    Вы можете скачивать файлы