Ссылка на приватное зеркало нашего сайта всего за 1$. Внимание количество ограничено!!!

2 сезон

iTunes

1 сезон

1

iTunes

iTunes

iTunes

1 сезон

RePack

30

ИГРА 18+

pack

ВАЖНО

!!Акция!!

Alien_RageХит недели

RePack

MK11
pack

Забери бонус

RePack

jed

!!Акция!!

Alien_Rage

RePack

fifa19

RePack

Assassins Creed: Odyssey

RePack

NEED FOR SPEED™ PAYBACK

4 сезон

9 сезон

Бесстыжие 9 сезон

Все сериалы

все сериалы на PB.wtf

RePack

FAR CRY 5
  

Побег из Вегаса(Расширенная версия) / Get Him to the Greek(UNRATED) (Николас Столлер) [2010 г., Комедия, BDRip (1080p), DUB + Оригинал] pb.wtf

Побег из Вегаса через торрент pb.wtf

Размер: 11.81 GB | Добавлен: 8 лет 5 мес. назад | Торрент скачан:58 раз
Скачать  

09-05-2012 11:59 Побег из Вегаса Скачать торрент  


Побег из Вегаса / Get Him to the Greek
«Мы доберемся до вас, если просохнем»Год выпуска: 2010
Страна: США, Universal Pictures
Жанр: Комедия
Продолжительность: 01:53:51
Перевод: Дубляж + Оригинал

Режиссер: Николас Столлер

В ролях: Джона Хилл, Расселл Брэнд, Шон "P. Diddy" Комбс, Роуз Бирн, Тайлер МакКинни, Зои Сэлмон, Ларс Ульрих, Марио Лопез, Пинк, Билли Буш, Курт Лодер, Кристина Агилера

Описание: Арон Гринберг получил работу, о которой мечтал всю жизнь. Но он никак не ожидал, что его первым заданием будет привезти из Лондона в Лос-Анджелес строптивую рок-звезду. Альдус Сноу — бывший кумир миллионов, знаменитый рокер и прекрасный музыкант, который после продолжительного пике собирается вернуться на большую сцену. Но его характер испорчен алкоголем и развращен деньгами настолько, что любая промелькнувшая юбка может увлечь его в водоворот зубодробительных приключений, в которых теряется само понятие о времени…

Качество: BDRip (1080p)
Формат: MKV
Видео кодек: H.26x
Аудио кодек: AC3
Видео: AVC, 1920x1040 (16:9), 23.976 fps, 13.0 Mbps (0.271 bit/pixel)
Аудио#1: AC-3, 48.0 KHz, 6 ch, 384 Kbps, CBR (Russian)
Аудио#2: DTS, 48.0 KHz, 6 ch, 1 510 Kbps, CBR (English)
Субтитры: Русские (на места без перевода) Английские

General
Unique ID : 193098385023830268311066519007137026399 (0x9145656CE7E44E8B8C25B42BBF32D15F)
Complete name : D:\Pobeg.iz.Vegasa.2010.x264.BDRip(1080p).mkv
Format : Matroska
File size : 11.8 GiB
Duration : 1h 53mn
Overall bit rate : 14.8 Mbps
Encoded date : UTC 2010-11-13 03:20:35
Writing application : mkvmerge v4.0.0 ('The Stars were mine') сборка от Jun 6 2010 16:18:42
Writing library : libebml v1.0.0 + libmatroska v1.0.0

Video
ID : 1
Format : AVC
Format/Info : Advanced Video Codec
Format profile : High@L4.1
Format settings, CABAC : Yes
Format settings, ReFrames : 4 frames
Codec ID : V_MPEG4/ISO/AVC
Duration : 1h 53mn
Bit rate : 13.0 Mbps
Width : 1 920 pixels
Height : 1 040 pixels
Display aspect ratio : 16:9
Frame rate : 23.976 fps
Color space : YUV
Chroma subsampling : 4:2:0
Bit depth : 8 bits
Scan type : Progressive
Bits/(Pixel*Frame) : 0.271
Stream size : 10.1 GiB (85%)
Title : LeHiH
Writing library : x264 core 104 r1703 cd21d05
Encoding settings : cabac=1 / ref=4 / deblock=1:-3:-3 / analyse=0x3:0x113 / me=umh / subme=9 / psy=1 / psy_rd=1.05:0.10 / mixed_ref=1 / me_range=32 / chroma_me=1 / trellis=2 / 8x8dct=1 / cqm=0 / deadzone=21,11 / fast_pskip=0 / chroma_qp_offset=-2 / threads=12 / sliced_threads=0 / nr=0 / decimate=1 / interlaced=0 / constrained_intra=0 / bframes=6 / b_pyramid=2 / b_adapt=2 / b_bias=0 / direct=3 / weightb=1 / open_gop=0 / weightp=2 / keyint=250 / keyint_min=23 / scenecut=40 / intra_refresh=0 / rc_lookahead=60 / rc=2pass / mbtree=1 / bitrate=12963 / ratetol=2.0 / qcomp=0.70 / qpmin=10 / qpmax=51 / qpstep=4 / cplxblur=20.0 / qblur=0.5 / vbv_maxrate=50000 / vbv_bufsize=50000 / ip_ratio=1.40 / aq=1:1.00 / nal_hrd=none
Language : English

Audio #1
ID : 2
Format : AC-3
Format/Info : Audio Coding 3
Mode extension : CM (complete main)
Codec ID : A_AC3
Duration : 1h 53mn
Bit rate mode : Constant
Bit rate : 384 Kbps
Channel(s) : 6 channels
Channel positions : Front: L C R, Side: L R, LFE
Sampling rate : 48.0 KHz
Bit depth : 16 bits
Compression mode : Lossy
Stream size : 313 MiB (3%)
Language : Russian

Audio #2
ID : 3
Format : DTS
Format/Info : Digital Theater Systems
Codec ID : A_DTS
Duration : 1h 53mn
Bit rate mode : Constant
Bit rate : 1 510 Kbps
Channel(s) : 6 channels
Channel positions : Front: L C R, Side: L R, LFE
Sampling rate : 48.0 KHz
Bit depth : 24 bits
Compression mode : Lossy
Stream size : 1.20 GiB (10%)
Language : English

Text
ID : 4
Format : UTF-8
Codec ID : S_TEXT/UTF8
Codec ID/Info : UTF-8 Plain Text
Language : Russian

pb.wtf



Скачать Побег из Вегаса через торрент http://rghost.ru/37990529/image.png Скачать фильм Побег из Вегасачерез торрент бесплантно в хорошем качестве Описание: Арон Гринберг получил работу, о которой мечтал всю жизнь. Но он никак не ожидал, что его первым заданием будет привезти из ... 9 10 1
Info! Золотая раздача, скачанное не засчитывается.
Торрент: Зарегистрирован [2012-05-09 11:59] · скачан: 58 раз
Статус: √ проверено
Размер: 11.81 GB
Как cкачать? Как скачать Побег из Вегаса через торрент | qTorrent

28-11-2019 20:33  

Отключить всю рекламу на сайте

09-05-2012 12:15 Побег из Вегаса Скачать торрент  



pb.wtf



    Дорогой пользователь! Огромная просьба, поблагодарите релизера, оцените раздачу и оставьте свои комментарий, если Вы скачали Побег из Вегаса через торрент бесплатно! Внесите свою лепту в развитие PiratBit!
    Комментировать посты могут только пользователи прошедшие не сложную регистрацию
    Показать сообщения:    

    Побег из Вегаса через торрент
    Скачать бесплатно Побег из Вегаса
    Побег из Вегаса скачать торрент
    Побег из Вегаса смотреть онлайн
    Cкачать фильм Побег из Вегаса бесплатно
    Побег из Вегаса скачать торрент в хорошем качестве
    Побег из Вегаса смотреть онлайн бесплатно в хорошем качестве


    Вы не можете начинать темы
    Вы не можете отвечать на сообщения
    Вы не можете редактировать свои сообщения
    Вы не можете удалять свои сообщения
    Вы не можете голосовать в опросах
    Вы не можете прикреплять файлы к сообщениям
    Вы можете скачивать файлы