Всегда рабочее зеркало без VPN и Proxy просто перед .vidak.icu напиши любое слово или цифру, Пример http://e3x5.vidak.icu

MVO

MVO

1 сезон

1

1 сезон

iTunes

1 сезон

13

1 сезон

Deluxe

pack

Рекомендуем

Repack

30

ВАЖНО

RePack

MK11

RePack

jed

RePack

fifa19

RePack

RDR2

RePack

NEED FOR SPEED™ PAYBACK

Кинопоиск HD

6 сезон

 Острые козырьки 6 сезон

Все сериалы

все сериалы на PB.wtf

RePack

FAR CRY 5
  
Magnet ссылка

Парень, который убивает людей / Some Guy Who Kills People (Джек Перез) [2011 г., ужасы, триллер, комедия,, DVDRip, Любительский (многоголосый)] pb.wtf

Парень, который убивает людей через торрент pb.wtf

Размер: 1.77 GB | Добавлен: 10 лет назад | Торрент скачан:276 раз
Смотреть онлайн Парень, который убивает людей | Скачать    Ребята, помогите собрать деньги на оплату серверов!!!

09-05-2012 12:12 Парень, который убивает людей Скачать торрент  

Парень, который убивает людей / Some Guy Who Kills People

Год выпуска: 2011
Страна: США
Жанр: ужасы, триллер, комедия,
Продолжительность: 01:36:00
Перевод: Любительский (многоголосый)


Субтитры: Руские присутствуют
Режиссер: Джек Перез
Продюссер: Мика Голдман, Райан А. Левин, Michael Wormser
Сценарий: Райан А. Левин

Премьера в мире: 14 апреля 2011




В ролях: Кевин Корригэн Бэрри Боствик Карен Блэк Лео Фицпатрик Эриель Гейд Эрик Прайс Люси Дэвис Лу Битти мл. Джени Хаддад Ахмед Бест ...

Описание: Кен Бойд — одинокий человек, отчаянно недовольный своей жизнью. Однажды он «слетает с катушек» и начинает убивать тех, кого считает виновниками его несчастий.
*Ёлка (Елена Емельянова)

*СЕСТРА (Светлана Чистохина)

*Solncekleshka (Татьяна Романовская)

*IgVin (Игорь Головин)

*Trantan (Дмитрий Иванов )

*Kenum (Владислав Данилов)

*viruse (Виталий Емельянов)

*Хихикающий Доктор
Качество: DVDRip
Формат: AVI
Видео кодек: XviD
Аудио кодек: AC3
Видео: 720x400 (16:9), 23.976 fps, XviD build 50 ~1681 kbps avg, 0.24 bit/pixel
Аудио#1: 48 kHz, AC3 Dolby Digital, 3/2 (L,C,R,l,r) + LFE ch, ~448.00 kbps avg
Аудио#2: 48 kHz, AC3 Dolby Digital, 3/2 (L,C,R,l,r) + LFE ch, ~448.00 kbps avg
Формат субтитров: softsub (SRT)





Полное имя : D:\FILM\Комедия\Some.Guy.Who.Kills.People.2011\Some.Guy.Who.Kills.People_ViruseProject.avi
Формат : AVI
Формат/Информация : Audio Video Interleave
Размер файла : 1,77 Гбайт
Продолжительность : 1 ч. 37 м.
Общий поток : 2593 Кбит/сек
Программа кодирования : VirtualDubMod 1.5.10.2 (build 2540/release)
Библиотека кодирования : VirtualDubMod build 2540/release

Видео
Идентификатор : 0
Формат : MPEG-4 Visual
Профиль формата : Advanced [email protected]
Параметр BVOP формата : 1
Параметр QPel формата : Нет
Параметр GMC формата : Без точки перехода
Параметр матрицы формата : Default (H.263)
Идентификатор кодека : XVID
Идентификатор кодека/Подсказка : XviD
Продолжительность : 1 ч. 37 м.
Битрейт : 1682 Кбит/сек
Ширина : 720 пикселей
Высота : 400 пикселей
Соотношение сторон : 16:9
Частота кадров : 23,976 кадра/сек
Цветовое пространство : YUV
Субдискретизация насыщенности : 4:2:0
Битовая глубина : 8 бит
Тип развёртки : Прогрессивная
Метод сжатия : С потерями
Бит/(Пиксели*Кадры) : 0.244
Размер потока : 1,15 Гбайт (65%)
Библиотека кодирования : XviD 1.2.1 (UTC 2008-12-04)

Аудио #1
Идентификатор : 1
Формат : AC-3
Формат/Информация : Audio Coding 3
Расширение режима : CM (complete main)
Параметр Endianness формата : Big
Идентификатор кодека : 2000
Продолжительность : 1 ч. 37 м.
Вид битрейта : Постоянный
Битрейт : 448 Кбит/сек
Каналы : 6 каналов
Расположение каналов : Front: L C R, Side: L R, LFE
Частота : 48,0 КГц
Битовая глубина : 16 бит
Метод сжатия : С потерями
Размер потока : 313 Мбайт (17%)
Выравнивание : Разделение по промежуткам
Продолжительность промежутка : 42 мс. (1,00 видеокадр)

pb.wtf



Скачать Парень, который убивает людей через торрент http://i38.fastpic.ru/big/2012/0509/86/3686625b48fa23d35ef624650ba07f86.gif Скачать, смотреть онлайн Парень, который убивает людей бесплантно в хорошем качестве Описание: Кен Бойд — одинокий человек, отчаянно недовольный своей жизнью. Однажды он «слетает с катушек» и начинает убивать тех, кого ... 5 10 1
Info! Золотая раздача, скачанное не засчитывается.
Торрент: Зарегистрирован [2012-05-09 12:12] · скачан: 276 раз
Статус: T временная
Размер: 1.77 GB
Как cкачать? Как скачать Парень, который убивает людей через торрент | UTorrent

% Раздел Тема Автор DL S | L
Фильмы 2011 [ 702 MB ] Парень который убивает людей / Some Guy Who Kills People [2011 DVDRip Любительский - [ViruseProject & DreamRecords & Xixidok]] Mr. Freeman Скачать
1 | 0

28-11-2019 20:33  

Отключить вcю реклaмy на сайте

12-05-2012 13:34 Парень, который убивает людей Скачать торрент  

Нормальный фильмецpb.wtf



13-05-2012 12:59 Парень, который убивает людей Скачать торрент  

гуууд :good:pb.wtf



14-05-2012 16:28 Парень, который убивает людей Скачать торрент  

по мне фильм тупой ... изготовлен в 90 годы...pb.wtf



    Дорогой пользователь! Огромная просьба, поблагодарите релизера, оцените раздачу и оставьте свои комментарий, если Вы скачали Парень, который убивает людей через торрент бесплатно!
    Комментировать посты могут только пользователи прошедшие не сложную регистрацию
    Показать сообщения:    

    Парень, который убивает людей через торрент
    Скачать бесплатно Парень, который убивает людей
    Парень, который убивает людей скачать торрент
    Парень, который убивает людей смотреть онлайн
    Cкачать фильм Парень, который убивает людей бесплатно
    Парень, который убивает людей скачать торрент в хорошем качестве
    Парень, который убивает людей смотреть онлайн бесплатно в хорошем качестве


    Вы не можете начинать темы
    Вы не можете отвечать на сообщения
    Вы не можете редактировать свои сообщения
    Вы не можете удалять свои сообщения
    Вы не можете голосовать в опросах
    Вы не можете прикреплять файлы к сообщениям
    Вы можете скачивать файлы