Всегда рабочее зеркало без VPN и Proxy просто перед .vidak.icu напиши любое слово или цифру, Пример http://4n7d.vidak.icu

MVO

2 сезон

1 сезон

1

1 сезон

iTunes

2 сезон

13

1 сезон

Распродажа

pack

Рекомендуем

Пиратка

30

ВАЖНО

RePack

MK11

RePack

jed

RePack

fifa19

RePack

RDR2

RePack

NEED FOR SPEED™ PAYBACK

Кинопоиск HD

6 сезон

 Острые козырьки 6 сезон

Все сериалы

все сериалы на PB.wtf

RePack

FAR CRY 5

Anonymous, нам критически не хватает 5601 руб. на оплату серверов и переферии за Апрель, помоги нам пожалуйста, вся надежда только на тебя. В благодарность мы отключим тебе всю рекламу на сайте!

×
  
Magnet ссылка

Счастливое число Слевина / Lucky Number Slevin (Пол МакГиган) [2006 г., триллер, драма, криминал, детектив, BDRip (720p), DUB + оригинал] pb.wtf

Счастливое число Слевина через торрент pb.wtf

Размер: 7.95 GB | Добавлен: 10 лет назад | Торрент скачан:16 раз
Смотреть онлайн Счастливое число Слевина | Скачать    Ребята, помогите собрать деньги на оплату серверов!!!

09-05-2012 15:33 Счастливое число Слевина Скачать торрент  

Счастливое число Слевина / Lucky Number Slevin

Год выпуска: 2006
Страна: США, Германия
Жанр: триллер, драма, криминал, детектив
Продолжительность: 01:49:50
Перевод: Дубляж + оригинал
Режиссер: Пол МакГиган
Сценарий: Джейсон Смилович
Продюсеры: Роберт Кравис, Тайлер Митчел, Энтони Рулен
В ролях: Джош Хартнет, Брюс Уиллис, Люси Лью, Морган Фриман, Бен Кингсли, Майкл Рубенфильд, Питер Отербридж, Стэнли Туччи, Кевин Чамберлен, Дориан Миссик, Майкелти Уильямсон, Скотт Гибсон, Дэниэл Кэш, Дмитрий Чеповецкий, Сэм Джагер, Дэнни Айелло, Оливер Дэвис, Кори Столл, Ховард Джером, Дж.Д. Джексон, Дженнифер Миллер
Описание: Слевину не везет. Дом опечатан, девушка ушла к другому… Его друг Ник уезжает из Нью-Йорка и предлагает Слевину пожить в пустой квартире. В это время крупный криминальный авторитет по прозвищу Босс хочет рассчитаться со своим бывшим партнером Рабби за убийство сына и в отместку «заказать» его наследника.
Качество: BDRip (720p)
Формат: MKV
Видео кодек: AVC
Аудио кодек: DTS, AC3
Видео: 1280х532, ~4990 kbps, 23,976 fps, h.264
Аудио#1: 48 kHz, DTS, 6ch, ~768 kbps |Dub|
Аудио#2: 48 kHz, DTS, 6ch, ~1536 kbps |DVO|
Аудио#3: 48 kHz, DTS, 6ch, ~768 kbps |AVO| - Ю. Немахов
Аудио#4: 48 kHz, AC3, 6ch, ~448 kbps |AVO| - А. Гаврилов
Аудио#5: 48 kHz, DTS, 6ch, ~1536 kbps |eng|
Аудио#6: 48 kHz, AC3, 2ch, ~192 kbps |eng| - комментарии режиссёра
Аудио#7: 48 kHz, AC3, 2ch, ~192 kbps |eng| - комментарии актеров
Субтитры: русские, английские

Общее
Уникальный идентификатор : 215262805322572423727133644344819008502 (0xA1F21BB779909A84A9A8DACCD68943F6)
Формат : Matroska
Версия формата : Version 2
Размер файла : 7,95 Гбайт
Продолжительность : 1 ч. 50 м.
Общий поток : 10,3 Мбит/сек
Название фильма : HANSMER
Дата кодирования : UTC 2010-12-31 14:38:54
Программа кодирования : mkvmerge v4.4.0 ('Die Wiederkehr') built on Oct 31 2010 21:52:48
Библиотека кодирования : libebml v1.0.0 + libmatroska v1.0.0

Видео
Идентификатор : 1
Формат : AVC
Формат/Информация : Advanced Video Codec
Профиль формата : High@L4.1
Параметр CABAC формата : Да
Параметр ReFrames формата : 11 кадров
Идентификатор кодека : V_MPEG4/ISO/AVC
Продолжительность : 1 ч. 50 м.
Битрейт : 4990 Кбит/сек
Ширина : 1280 пикс.
Высота : 532 пикс.
Соотношение сторон : 2,40:1
Частота кадров : 23,976 кадр/сек
Цветовое пространство : YUV
Подвыборка цветности : 4:2:0
Битовая глубина : 8 бит
Тип развёртки : Прогрессивная
Бит/(Пиксели*Кадры) : 0.306
Размер потока : 3,66 Гбайт (46%)
Заголовок : Lucky.Number.Slevin.2006.Blu-ray.720p.x264
Библиотека кодирования : x264 core 112 r1834 a51816a
Настройки программы : cabac=1 / ref=11 / deblock=1:-3:-3 / analyse=0x3:0x113 / me=esa / subme=10 / psy=1 / psy_rd=1.00:0.00 / mixed_ref=1 / me_range=32 / chroma_me=1 / trellis=2 / 8x8dct=1 / cqm=0 / deadzone=21,11 / fast_pskip=0 / chroma_qp_offset=-2 / threads=12 / sliced_threads=0 / nr=0 / decimate=1 / interlaced=0 / constrained_intra=0 / bframes=10 / b_pyramid=2 / b_adapt=2 / b_bias=0 / direct=3 / weightb=1 / open_gop=0 / weightp=2 / keyint=250 / keyint_min=23 / scenecut=40 / intra_refresh=0 / rc_lookahead=60 / rc=2pass / mbtree=0 / bitrate=4990 / ratetol=1.0 / qcomp=0.70 / qpmin=10 / qpmax=51 / qpstep=4 / cplxblur=20.0 / qblur=0.5 / vbv_maxrate=50000 / vbv_bufsize=62500 / ip_ratio=1.40 / pb_ratio=1.30 / aq=1:1.00 / nal_hrd=none
Язык : English
Коэффициенты матрицы : BT.709-5, BT.1361, IEC 61966-2-4 709, SMPTE RP177

Аудио #1
Идентификатор : 2
Формат : DTS
Формат/Информация : Digital Theater Systems
Идентификатор кодека : A_DTS
Продолжительность : 1 ч. 50 м.
Вид битрейта : Постоянный
Битрейт : 755 Кбит/сек
Каналы : 6 каналов
Расположение каналов : Front: L C R, Side: L R, LFE
Частота : 48,0 КГц
Битовая глубина : 24 бит
Метод сжатия : С потерями
Размер потока : 594 Мбайт (7%)
Заголовок : Dub
Язык : Russian

Аудио #2
Идентификатор : 3
Формат : DTS
Формат/Информация : Digital Theater Systems
Идентификатор кодека : A_DTS
Продолжительность : 1 ч. 50 м.
Вид битрейта : Постоянный
Битрейт : 1510 Кбит/сек
Каналы : 6 каналов
Расположение каналов : Front: L C R, Side: L R, LFE
Частота : 48,0 КГц
Битовая глубина : 24 бит
Метод сжатия : С потерями
Размер потока : 1,16 Гбайт (15%)
Заголовок : Glanz & Koroleva
Язык : Russian

Аудио #3
Идентификатор : 4
Формат : DTS
Формат/Информация : Digital Theater Systems
Идентификатор кодека : A_DTS
Продолжительность : 1 ч. 50 м.
Вид битрейта : Постоянный
Битрейт : 755 Кбит/сек
Каналы : 6 каналов
Расположение каналов : Front: L C R, Side: L R, LFE
Частота : 48,0 КГц
Битовая глубина : 24 бит
Метод сжатия : С потерями
Размер потока : 594 Мбайт (7%)
Заголовок : Nemahov
Язык : Russian

Аудио #4
Идентификатор : 5
Формат : AC-3
Формат/Информация : Audio Coding 3
Расширение режима : CM (complete main)
Идентификатор кодека : A_AC3
Продолжительность : 1 ч. 50 м.
Вид битрейта : Постоянный
Битрейт : 448 Кбит/сек
Каналы : 6 каналов
Расположение каналов : Front: L C R, Side: L R, LFE
Частота : 48,0 КГц
Битовая глубина : 16 бит
Метод сжатия : С потерями
Размер потока : 353 Мбайт (4%)
Заголовок : Gavrilov
Язык : Russian

Аудио #5
Идентификатор : 6
Формат : DTS
Формат/Информация : Digital Theater Systems
Идентификатор кодека : A_DTS
Продолжительность : 1 ч. 50 м.
Вид битрейта : Постоянный
Битрейт : 1510 Кбит/сек
Каналы : 6 каналов
Расположение каналов : Front: L C R, Side: L R, LFE
Частота : 48,0 КГц
Битовая глубина : 24 бит
Метод сжатия : С потерями
Размер потока : 1,16 Гбайт (15%)
Язык : English

Аудио #6
Идентификатор : 7
Формат : AC-3
Формат/Информация : Audio Coding 3
Расширение режима : CM (complete main)
Идентификатор кодека : A_AC3
Продолжительность : 1 ч. 50 м.
Вид битрейта : Постоянный
Битрейт : 192 Кбит/сек
Каналы : 2 канала
Расположение каналов : Front: L R
Частота : 48,0 КГц
Битовая глубина : 16 бит
Метод сжатия : С потерями
Размер потока : 151 Мбайт (2%)
Заголовок : Director commentary
Язык : English

Аудио #7
Идентификатор : 8
Формат : AC-3
Формат/Информация : Audio Coding 3
Расширение режима : CM (complete main)
Идентификатор кодека : A_AC3
Продолжительность : 1 ч. 50 м.
Вид битрейта : Постоянный
Битрейт : 192 Кбит/сек
Каналы : 2 канала
Расположение каналов : Front: L R
Частота : 48,0 КГц
Битовая глубина : 16 бит
Метод сжатия : С потерями
Размер потока : 151 Мбайт (2%)
Заголовок : Actors commentary
Язык : English

Текст #1
Идентификатор : 9
Формат : UTF-8
Идентификатор кодека : S_TEXT/UTF8
Идентификатор кодека/Информация : UTF-8 Plain Text
Язык : Russian

Текст #2
Идентификатор : 10
Формат : UTF-8
Идентификатор кодека : S_TEXT/UTF8
Идентификатор кодека/Информация : UTF-8 Plain Text
Язык : English

Меню
00:00:00.000 : en:It All Begins
00:04:38.451 : en:A Kansas City Shuffle
00:17:24.050 : en:Bad Things Happen in Fours
00:24:03.574 : en:Orders Is Orders
00:28:11.530 : en:A Small Favor
00:37:18.868 : en:The Unlucky Don't Know They're Unlucky
00:43:54.639 : en:Lindsey's Investigation
00:47:13.379 : en:Cat and Mouse
00:52:13.095 : en:Detective Work
00:56:28.975 : en:Slevin Gets a Date
01:02:43.725 : en:There's Only One Bond
01:04:42.260 : en:Time to Come Clean
01:08:19.185 : en:A Nice Look for "The Fairy"
01:13:44.427 : en:"I'll Give Him a War"
01:17:37.326 : en:Old Friends Catch Up
01:22:36.833 : en:An Answer to a Question
01:40:03.963 : en:A World Class Assassin
01:45:01.552 : en:End Credits
pb.wtf



Скачать Счастливое число Слевина через торрент https://pic1.kartinco.top/images/2000/rxohrq4q1i.jpg Скачать, смотреть онлайн Счастливое число Слевина бесплантно в хорошем качестве Описание: Слевину не везет. Дом опечатан, девушка ушла к другому… Его друг Ник уезжает из Нью-Йорка и предлагает Слевину пожить в пустой ... 5 10 2
Info! Золотая раздача, скачанное не засчитывается.
Торрент: Зарегистрирован [2012-05-09 15:33] · скачан: 16 раз
Статус: ∑ поглощено
Размер: 7.95 GB
Как cкачать? Как скачать Счастливое число Слевина через торрент | UTorrent

28-11-2019 20:33  

Отключить всю рекламу на сайте

09-05-2012 17:21 Счастливое число Слевина Скачать торрент  

10-05-2012 02:07 Счастливое число Слевина Скачать торрент  

    Дорогой пользователь! Огромная просьба, поблагодарите релизера, оцените раздачу и оставьте свои комментарий, если Вы скачали Счастливое число Слевина через торрент бесплатно!
    Комментировать посты могут только пользователи прошедшие не сложную регистрацию
    Показать сообщения:    

    Счастливое число Слевина через торрент
    Скачать бесплатно Счастливое число Слевина
    Счастливое число Слевина скачать торрент
    Счастливое число Слевина смотреть онлайн
    Cкачать фильм Счастливое число Слевина бесплатно
    Счастливое число Слевина скачать торрент в хорошем качестве
    Счастливое число Слевина смотреть онлайн бесплатно в хорошем качестве


    Вы не можете начинать темы
    Вы не можете отвечать на сообщения
    Вы не можете редактировать свои сообщения
    Вы не можете удалять свои сообщения
    Вы не можете голосовать в опросах
    Вы не можете прикреплять файлы к сообщениям
    Вы можете скачивать файлы