Всегда рабочее зеркало без VPN и Proxy просто перед .vidak.icu напиши любое слово или цифру, Пример http://fxf7.vidak.icu

MVO

Лицензия

1 сезон

1

1 сезон

iTunes

1 сезон

13

1 сезон

Deluxe

pack

Рекомендуем

Repack

30

ВАЖНО

RePack

MK11

RePack

jed

RePack

fifa19

RePack

RDR2

RePack

NEED FOR SPEED™ PAYBACK

Кинопоиск HD

6 сезон

 Острые козырьки 6 сезон

Все сериалы

все сериалы на PB.wtf

RePack

FAR CRY 5
  
Magnet ссылка

Милые кости / The Lovely Bones (Питер Джексон) [2009 г., фэнтези, триллер, драма, криминал, детектив, BDRip (720p), DUB + оригинал] pb.wtf

Милые кости через торрент pb.wtf

Размер: 7.72 GB | Добавлен: 10 лет назад | Торрент скачан:77 раз
Смотреть онлайн Милые кости | Скачать    Ребята, помогите собрать деньги на оплату серверов!!!

09-05-2012 15:43 Милые кости Скачать торрент  

Милые кости / The Lovely Bones

Год выпуска: 2009
Страна: США, Великобритания, Новая Зеландия
Жанр: фэнтези, триллер, драма, криминал, детектив
Продолжительность: 02:15:30
Перевод: Дубляж + оригинал

Режиссер: Питер Джексон

В ролях: Марк Уолберг, Рейчел Вайс, Сьюзен Сарандон, Стенли Туччи, Майкл Империоли, Сирша Ронан, Роуз МакИвер, Кристиан Томас Ашдейл, Рис Ричи, Кэролин Дандо

Описание: Фильм рассказывает о переживаниях четырнадцатилетней девушки, изнасилованной и убитой маньяком-соседом. Наблюдая за жизнью домочадцев с небес, героиня мечтает о простых подростковых радостях и жаждет поимки душегуба.

Качество: BDRip (720p)
Формат: MKV
Видео кодек: AVC
Аудио кодек: AC3, DTS
Видео: 1280х546, 23.976 fps, ~5864 kbps
Аудио#1: 48 kHz, AC3, 6ch, ~640 kbps |Dub| - Blu-Ray CEE
Аудио#3: 48 kHz, DTS, 6ch, ~1536 kbps |eng|
Субтитры: русские, русские (Andrew Placid), английские, Spa, Dut, Fin, Nor, Swe, Gre, Vie, Ara

Общее
Уникальный идентификатор : 242732918438669734384569436035585234995 (0xB69CA8DC4372EFD5990C1ACA411D5833)
Формат : Matroska
Версия формата : Version 2
Размер файла : 7,72 Гбайт
Продолжительность : 2 ч. 15 м.
Общий поток : 8155 Кбит/сек
Название фильма : The Lovely Bones (2009) - Release by -= Andrew Placid =-
Дата кодирования : UTC 2010-06-22 23:08:02
Программа кодирования : mkvmerge v4.0.0 ('The Stars were mine') сборка от Jun 6 2010 16:18:42
Библиотека кодирования : libebml v1.0.0 + libmatroska v1.0.0

Видео
Идентификатор : 1
Формат : AVC
Формат/Информация : Advanced Video Codec
Профиль формата : [email protected]
Параметр CABAC формата : Да
Параметр ReFrames формата : 9 кадров
Идентификатор кодека : V_MPEG4/ISO/AVC
Продолжительность : 2 ч. 15 м.
Битрейт : 5843 Кбит/сек
Ширина : 1280 пикс.
Высота : 546 пикс.
Соотношение сторон : 2,35:1
Частота кадров : 23,976 кадр/сек
Цветовое пространство : YUV
Подвыборка цветности : 4:2:0
Битовая глубина : 8 бит
Тип развёртки : Прогрессивная
Бит/(Пиксели*Кадры) : 0.349
Размер потока : 5,53 Гбайт (72%)
Заголовок : The Lovely Bones (2009)
Язык : English

Аудио #1
Идентификатор : 2
Формат : AC-3
Формат/Информация : Audio Coding 3
Расширение режима : CM (complete main)
Идентификатор кодека : A_AC3
Продолжительность : 2 ч. 15 м.
Вид битрейта : Постоянный
Битрейт : 640 Кбит/сек
Каналы : 6 каналов
Расположение каналов : Front: L C R, Side: L R, LFE
Частота : 48,0 КГц
Битовая глубина : 16 бит
Метод сжатия : С потерями
Размер потока : 620 Мбайт (8%)
Заголовок : AC3 5.1ch 640 kbps [Дубляж]
Язык : Russian

Аудио #2
Идентификатор : 3
Формат : DTS
Формат/Информация : Digital Theater Systems
Идентификатор кодека : A_DTS
Продолжительность : 2 ч. 15 м.
Вид битрейта : Постоянный
Битрейт : 1510 Кбит/сек
Каналы : 6 каналов
Расположение каналов : Front: L C R, Side: L R, LFE
Частота : 48,0 КГц
Битовая глубина : 24 бит
Метод сжатия : С потерями
Размер потока : 1,43 Гбайт (19%)
Заголовок : DTS 5.1ch 1536kbps [Оригинал]
Язык : English

Текст #1
Идентификатор : 4
Формат : UTF-8
Идентификатор кодека : S_TEXT/UTF8
Идентификатор кодека/Информация : UTF-8 Plain Text
Заголовок : Blu-Ray CEE
Язык : Russian

Текст #2
Идентификатор : 5
Формат : UTF-8
Идентификатор кодека : S_TEXT/UTF8
Идентификатор кодека/Информация : UTF-8 Plain Text
Заголовок : Andrew Placid
Язык : Russian

Текст #3
Идентификатор : 6
Формат : UTF-8
Идентификатор кодека : S_TEXT/UTF8
Идентификатор кодека/Информация : UTF-8 Plain Text
Язык : English

Текст #4
Идентификатор : 7
Формат : UTF-8
Идентификатор кодека : S_TEXT/UTF8
Идентификатор кодека/Информация : UTF-8 Plain Text
Язык : Spanish

Текст #5
Идентификатор : 8
Формат : UTF-8
Идентификатор кодека : S_TEXT/UTF8
Идентификатор кодека/Информация : UTF-8 Plain Text
Язык : Dutch

Текст #6
Идентификатор : 9
Формат : UTF-8
Идентификатор кодека : S_TEXT/UTF8
Идентификатор кодека/Информация : UTF-8 Plain Text
Язык : Finnish

Текст #7
Идентификатор : 10
Формат : UTF-8
Идентификатор кодека : S_TEXT/UTF8
Идентификатор кодека/Информация : UTF-8 Plain Text
Язык : French

Текст #8
Идентификатор : 11
Формат : UTF-8
Идентификатор кодека : S_TEXT/UTF8
Идентификатор кодека/Информация : UTF-8 Plain Text
Язык : Norwegian

Текст #9
Идентификатор : 12
Формат : UTF-8
Идентификатор кодека : S_TEXT/UTF8
Идентификатор кодека/Информация : UTF-8 Plain Text
Язык : Swedish

Текст #10
Идентификатор : 13
Формат : UTF-8
Идентификатор кодека : S_TEXT/UTF8
Идентификатор кодека/Информация : UTF-8 Plain Text
Язык : Greek

Текст #11
Идентификатор : 14
Формат : UTF-8
Идентификатор кодека : S_TEXT/UTF8
Идентификатор кодека/Информация : UTF-8 Plain Text
Язык : Vietnamese

Текст #12
Идентификатор : 15
Формат : UTF-8
Идентификатор кодека : S_TEXT/UTF8
Идентификатор кодека/Информация : UTF-8 Plain Text
Язык : Arabic

Меню
00:00:00.000 : en:Scene 1
00:10:21.912 : en:Scene 2
00:21:41.508 : en:Scene 3
00:32:05.006 : en:Scene 4
00:44:04.516 : en:Scene 5
00:58:47.774 : en:Scene 6
01:12:01.525 : en:Scene 7
01:25:46.099 : en:Scene 8
01:38:16.974 : en:Scene 9
01:48:23.205 : en:Scene 10
01:57:47.560 : en:Scene 11
02:01:54.223 : en:Scene 12
pb.wtf



Скачать Милые кости через торрент http://i8.fastpic.ru/big/2010/0704/d9/6b52f6653882cace309b2acb56283ed9.jpg Скачать, смотреть онлайн Милые кости бесплантно в хорошем качестве Описание: Фильм рассказывает о переживаниях четырнадцатилетней девушки, изнасилованной и убитой маньяком-соседом. Наблюдая за жизнью ... 10 10 3
Info! Золотая раздача, скачанное не засчитывается.
Торрент: Зарегистрирован [2012-05-09 15:43] · скачан: 77 раз
Статус: √ проверено
Размер: 7.72 GB
Как cкачать? Как скачать Милые кости через торрент | UTorrent

28-11-2019 20:33  

Отключить всю рекламу на сайте

09-05-2012 20:17 Милые кости Скачать торрент  

Шедевр!pb.wtf



05-10-2012 12:14 Милые кости Скачать торрент  

Потрясающий фильм! Красивый и захватывающий, не смотря на жанр. Очень понравились актёры, подобраны превосходно! Сам сюжет настолько впечатлил и поразил, что просто нет слов. Советую посмотреть, не пожалеете!
10/10pb.wtf



    Дорогой пользователь! Огромная просьба, поблагодарите релизера, оцените раздачу и оставьте свои комментарий, если Вы скачали Милые кости через торрент бесплатно!
    Комментировать посты могут только пользователи прошедшие не сложную регистрацию
    Показать сообщения:    

    Милые кости через торрент
    Скачать бесплатно Милые кости
    Милые кости скачать торрент
    Милые кости смотреть онлайн
    Cкачать фильм Милые кости бесплатно
    Милые кости скачать торрент в хорошем качестве
    Милые кости смотреть онлайн бесплатно в хорошем качестве


    Вы не можете начинать темы
    Вы не можете отвечать на сообщения
    Вы не можете редактировать свои сообщения
    Вы не можете удалять свои сообщения
    Вы не можете голосовать в опросах
    Вы не можете прикреплять файлы к сообщениям
    Вы можете скачивать файлы