MEGA NEWS Получи личный уникальный адрес сайта и защити себя от блокировок. Внимание количество ограничено!!!

iTunes

1+1

iTunes

мы

iTunes

1

iTunes

Чернобыль

iTunes

Ральф против интернета

Лицензия

ПШазам

Лицензия

Игра престолов

Лицензия

30
pack

ВАЖНО

!!Акция!!

Alien_RageХит недели

RePack

Resident Evil 21

ИГРА 18+

pack

RePack

Metro:Exodus

!!Акция!!

Alien_Rage

RePack

fifa19

RePack

Assassins Creed: Odyssey

RePack

NEED FOR SPEED™ PAYBACK

3 сезон

9 сезон

Бесстыжие 9 сезон

Все сериалы

все сериалы на PB.wtf

RePack

FAR CRY 5
Ребята, катастрофически не хватает 1900р. для оплаты серверов за АВГУСТ (всвязи с блокировками трафик упал в 3 раза), 1-2р., выручайте.
  

Мы из будущего 2 (Александр Самохвалов, Борис Ростов) [2010 г., фантастика, боевик, приключения, военный, история, BDRip (720p)] pb.wtf

Мы из будущего 2 через торрент pb.wtf

Размер: 7.94 GB | Добавлен: 7 лет 5 мес. назад | Торрент скачан:33 раза
Скачать  

10-05-2012 10:07 Мы из будущего 2 Скачать торрент  

Мы из будущего 2

Год выпуска: 2010
Страна: Россия
Жанр: фантастика, боевик, приключения, военный, история
Продолжительность: 01:41:28
Перевод: Не требуется

Режиссер: Александр Самохвалов, Борис Ростов

В ролях: Игорь Петренко, Екатерина Климова, Владимир Яглыч, Алексей Барабаш, Дмитрий Ступка, Иван Краско, Дмитрий Дячук, Владислав Резник, Семен Белоцерковский, Денис Карасев

Описание: Они встретились на поле «реконструкции военных событий» и хотели поиграть в войну. Но война решила поиграть с ними…
Герои первой части фильма, Борман и Череп, попадают в 1944 год, и вместе с ними в прошлом оказываются еще двое — молодые украинцы Таран и Серый, «игравшие » в войну на другой стороне. Каждый из них совершит свой подвиг, чтобы вернуться домой и сберечь свое и наше Будущее…

Качество: BDRip (720p)
Формат: MKV
Видео кодек: H.264
Аудио кодек: DTS
Видео: 1280x544, 23.976 fps, x264, ~9689 kbps avg
Аудио: 48 kHz, DTS, 3/2 (L,C,R,l,r) + LFE ch, ~1536.00 kbps avg

Общее
Уникальный идентификатор : 232363694826208278258180328550000868657 (0xAECF9EAA41F3C0499E70FA19B231BD31)
Полное имя : F:\Раздать\Mi.iz.buduschego 2.BDRip.720p.2010.mkv
Формат : Matroska
Версия формата : Version 2
Размер файла : 7,94 Гбайт
Продолжительность : 1 ч. 41 м.
Общий поток : 11,2 Мбит/сек
Название фильма : Mi iz buduschego (2010) - Release for HDCLUB
Дата кодирования : UTC 2010-03-20 18:26:01
Программа кодирования : mkvmerge v3.0.0 ('Hang up your Hang-Ups') built on Dec 12 2009 15:20:35
Библиотека кодирования : libebml v0.7.9 + libmatroska v0.8.1

Видео
Идентификатор : 1
Формат : AVC
Формат/Информация : Advanced Video Codec
Профиль формата : High@L4.1
Параметр CABAC формата : Да
Параметр ReFrames формата : 11 кадров
Идентификатор кодека : V_MPEG4/ISO/AVC
Продолжительность : 1 ч. 41 м.
Битрейт : 9689 Кбит/сек
Ширина : 1280 пикс.
Высота : 544 пикс.
Соотношение сторон : 2,35:1
Частота кадров : 23,976 кадр/сек
Цветовое пространство : YUV
Подвыборка цветности : 4:2:0
Битовая глубина : 8 бит
Тип развёртки : Прогрессивная
Бит/(Пиксели*Кадры) : 0.580
Размер потока : 6,71 Гбайт (85%)
Заголовок : Release for HDCLUB
Библиотека кодирования : x264 core 84 r1400M 20fa784
Настройки программы : cabac=1 / ref=11 / deblock=1:-3:-3 / analyse=0x3:0x113 / me=umh / subme=9 / psy=1 / psy_rd=1.0:0.0 / mixed_ref=1 / me_range=32 / chroma_me=1 / trellis=2 / 8x8dct=1 / cqm=0 / deadzone=21,11 / fast_pskip=0 / chroma_qp_offset=-2 / threads=12 / sliced_threads=0 / nr=0 / decimate=0 / mbaff=0 / constrained_intra=0 / bframes=8 / b_pyramid=2 / b_adapt=2 / b_bias=0 / direct=3 / wpredb=1 / wpredp=2 / keyint=240 / keyint_min=24 / scenecut=40 / intra_refresh=0 / rc_lookahead=80 / rc=2pass / mbtree=1 / bitrate=9689 / ratetol=1.0 / qcomp=0.80 / qpmin=10 / qpmax=51 / qpstep=4 / cplxblur=20.0 / qblur=0.5 / vbv_maxrate=50000 / vbv_bufsize=62500 / ip_ratio=1.40 / aq=1:0.80 / pulldown=0 / nal_hrd=0
Язык : English

Аудио
Идентификатор : 2
Формат : DTS
Формат/Информация : Digital Theater Systems
Идентификатор кодека : A_DTS
Продолжительность : 1 ч. 41 м.
Вид битрейта : Постоянный
Битрейт : 1510 Кбит/сек
Каналы : 6 каналов
Расположение каналов : Front: L C R, Side: L R, LFE
Частота : 48,0 КГц
Битовая глубина : 16 бит
Метод сжатия : С потерями
Размер потока : 1,07 Гбайт (13%)
Заголовок : DTS 5.1 @ 1536 kbps
Язык : Russian
pb.wtf



Скачать Мы из будущего 2 через торрент http://s004.radikal.ru/i205/1004/33/14f702bddc81.png Скачать фильм Мы из будущего 2 через торрент бесплантно в хорошем качестве Описание: Они встретились на поле «реконструкции военных событий» и хотели поиграть в войну. Но война решила поиграть с ними…Герои первой ... 9.7 10 3
Info! Золотая раздача, скачанное не засчитывается.
Торрент: Зарегистрирован [2012-05-10 10:07] · скачан: 33 раз
Статус: √ проверено
Размер: 7.94 GB
Как cкачать? Как скачать Мы из будущего 2 через торрент | qTorrent

% Раздел Тема Автор DL S | L
Наши фильмы 2010-2011 [ 1.46 GB ] Мы из будущего 2 [2010 военный ... BDRip лицензия] eazy1 Скачать
1 | 0
Наши фильмы 2010-2011 [ 1.95 GB ] Мы из будущего 2 [2010 военный BDRip-AVC] tyry999 Скачать
1 | 0
Наши фильмы 2010-2011 [ 700 MB ] Мы из будущего 2 / Мы из будущего 2 [2010 военный история DVDRip лицензия] ЕВГЕНИЙ ОЛЕГОВИЧ Скачать
1 | 0


>> Регистрируемся здесь <<






Отзывы и комментарии о схеме читаем и пишем здесь: ---> Отзывы и комментарии о схеме

Новые благодарочки в телеграм довольных пользователей:
скриншот   скриншот   скриншот   скриншот   скриншот

24-01-2015 14:07 Мы из будущего 2 Скачать торрент  

СТАНЬТЕ НА РАЗДАЧУ КТО НИБУДЬpb.wtf



    Дорогой пользователь! Огромная просьба, поблагодарите релизера, оцените раздачу и оставьте свои комментарий, если Вы скачали Мы из будущего 2 через торрент бесплатно! Внесите свою лепту в развитие PiratBit!
    Комментировать посты могут только пользователи прошедшие не сложную регистрацию
    Показать сообщения:    

    Мы из будущего 2 через торрент
    Скачать бесплатно Мы из будущего 2
    Мы из будущего 2 скачать торрент
    Мы из будущего 2 смотреть онлайн
    Cкачать фильм Мы из будущего 2 бесплатно
    Мы из будущего 2 скачать торрент в хорошем качестве
    Мы из будущего 2 смотреть онлайн бесплатно в хорошем качестве


    Вы не можете начинать темы
    Вы не можете отвечать на сообщения
    Вы не можете редактировать свои сообщения
    Вы не можете удалять свои сообщения
    Вы не можете голосовать в опросах
    Вы не можете прикреплять файлы к сообщениям
    Вы можете скачивать файлы