Ссылка на приватное зеркало нашего сайта всего за 1$. Внимание количество ограничено!!!

2 сезон

iTunes

1 сезон

1

iTunes

iTunes

iTunes

1 сезон

RePack

30

ИГРА 18+

pack

ВАЖНО

!!Акция!!

Alien_RageХит недели

RePack

MK11
pack

Забери бонус

RePack

jed

!!Акция!!

Alien_Rage

RePack

fifa19

RePack

Assassins Creed: Odyssey

RePack

NEED FOR SPEED™ PAYBACK

4 сезон

9 сезон

Бесстыжие 9 сезон

Все сериалы

все сериалы на PB.wtf

RePack

FAR CRY 5
  

То, что её заводит / Turn Me On, Dammit! / Fа meg pа, for faen (Яннике Систад Якобсен) [2011 г., Комедия, BDRip (720p), Профессиональный + Оригинал] pb.wtf

То, что её заводит через торрент pb.wtf

Размер: 6.79 GB | Добавлен: 8 лет 5 мес. назад | Торрент скачан:75 раз
Скачать  

10-05-2012 13:52 То, что её заводит Скачать торрент  

То, что её заводит / Turn Me On, Dammit! / Fа meg pа, for faen

Год выпуска: 2011
Страна: Норвегия / Motlys
Жанр: Комедия
Продолжительность: 01:12:32
Перевод: Профессиональный + Оригинал

Режиссер: Яннике Систад Якобсен

В ролях: Хелен Бергшолм, Генриетта Стинстрап, Джулия Баке-Виг, Джулия Элиз Шахт, Артур Бернинг

Описание: Альме 15 лет, ее самые «заводные» годы проходят в захолустном норвежском городке. Здесь тишина, покой и овечки на лугах - кошмар для барышни с чрезвычайно развитым воображением и непрекращающимся гормональным взрывом! Неудивительно, что Альма полностью погрузилась в эротические мечты, подогреваемые телефонной службой «Дикие и горячие фантазии». И только мама возвращает Альму к реальности, когда видит счета за «секс по телефону»!

Качество: BDRip (720p)
Формат: MKV
Видео кодек: Другой MPEG4
Аудио кодек: AC3
Видео: AVC, 1280x690 (1.855), 25.000 fps, 11.4 Mbps (0.518 bit/pixel)
Аудио#1: AC-3, 48.0 KHz, 6 ch, 448 Kbps, CBR (Russian)
Аудио#2: DTS, 48.0 KHz, 6 ch, 1 510 Kbps, CBR (Norwegian)
Субтитры: Russian, English



General
Unique ID : 234535497236804961920099229842752811764 (0xB071E4CA81C9420EBCEECF2E326632F4)
Complete name : D:\Turn.Me.On.Dammit.2011.P.BDRip720p.IRONCLUB.mkv
Format : Matroska
File size : 6.79 GiB
Duration : 1h 12mn
Overall bit rate : 13.4 Mbps
Movie name : ..:IRONCLUB:..
Encoded date : UTC 2012-05-09 14:46:44
Writing application : mkvmerge v5.2.0 ('I can't explain') built on Dec 18 2011 18:12:03
Writing library : libebml v1.2.3 + libmatroska v1.3.0

Video
ID : 1
Format : AVC
Format/Info : Advanced Video Codec
Format profile : High@L4.1
Format settings, CABAC : Yes
Format settings, ReFrames : 9 frames
Format settings, GOP : M=1, N=25
Codec ID : V_MPEG4/ISO/AVC
Duration : 1h 12mn
Bit rate : 11.4 Mbps
Width : 1 280 pixels
Height : 690 pixels
Display aspect ratio : 1.855
Frame rate : 25.000 fps
Color space : YUV
Chroma subsampling : 4:2:0
Bit depth : 8 bits
Scan type : Progressive
Bits/(Pixel*Frame) : 0.518
Stream size : 5.66 GiB (83%)
Title : ..:IRONCLUB:..
Writing library : x264 core 119 r2106 07efeb4
Encoding settings : cabac=1 / ref=9 / deblock=1:-3:-3 / analyse=0x3:0x133 / me=umh / subme=10 / psy=1 / psy_rd=1.00:0.10 / mixed_ref=1 / me_range=48 / chroma_me=1 / trellis=2 / 8x8dct=1 / cqm=0 / deadzone=21,11 / fast_pskip=0 / chroma_qp_offset=-3 / threads=12 / sliced_threads=0 / nr=0 / decimate=0 / interlaced=0 / bluray_compat=0 / constrained_intra=0 / bframes=6 / b_pyramid=2 / b_adapt=2 / b_bias=0 / direct=3 / weightb=1 / open_gop=0 / weightp=2 / keyint=360 / keyint_min=2 / scenecut=40 / intra_refresh=0 / rc_lookahead=60 / rc=2pass / mbtree=1 / bitrate=11433 / ratetol=1.0 / qcomp=0.70 / qpmin=0 / qpmax=69 / qpstep=4 / cplxblur=20.0 / qblur=0.5 / vbv_maxrate=50000 / vbv_bufsize=30000 / nal_hrd=none / ip_ratio=1.40 / aq=2:1.00

Audio #1
ID : 2
Format : AC-3
Format/Info : Audio Coding 3
Mode extension : CM (complete main)
Codec ID : A_AC3
Duration : 1h 12mn
Bit rate mode : Constant
Bit rate : 448 Kbps
Channel(s) : 6 channels
Channel positions : Front: L C R, Side: L R, LFE
Sampling rate : 48.0 KHz
Bit depth : 16 bits
Compression mode : Lossy
Stream size : 232 MiB (3%)
Title : Rus_R5
Language : Russian

Audio #2
ID : 3
Format : DTS
Format/Info : Digital Theater Systems
Codec ID : A_DTS
Duration : 1h 12mn
Bit rate mode : Constant
Bit rate : 1 510 Kbps
Channel(s) : 6 channels
Channel positions : Front: L C R, Side: L R, LFE
Sampling rate : 48.0 KHz
Bit depth : 24 bits
Compression mode : Lossy
Stream size : 783 MiB (11%)
Language : Norwegian

Text #1
ID : 4
Format : UTF-8
Codec ID : S_TEXT/UTF8
Codec ID/Info : UTF-8 Plain Text
Language : Russian

Text #2
ID : 5
Format : UTF-8
Codec ID : S_TEXT/UTF8
Codec ID/Info : UTF-8 Plain Text
Language : English

pb.wtf



Скачать То, что её заводит через торрент http://rghost.ru/38008649/image.png Скачать фильм То, что её заводит через торрент бесплантно в хорошем качестве Описание: Альме 15 лет, ее самые «заводные» годы проходят в захолустном норвежском городке. Здесь тишина, покой и овечки на лугах - кошмар ... 5 10 1
Info! Золотая раздача, скачанное не засчитывается.
Торрент: Зарегистрирован [2012-05-10 13:52] · скачан: 75 раз
Статус: √ проверено
Размер: 6.79 GB
Как cкачать? Как скачать То, что её заводит через торрент | qTorrent



Последний раз редактировалось: ~Relizer~ (2012-05-10 14:10), всего редактировалось 1 раз

28-11-2019 20:33  

Отключить всю рекламу на сайте

10-05-2012 14:07 То, что её заводит Скачать торрент  

как фильм??pb.wtf



10-05-2012 14:10 То, что её заводит Скачать торрент  

алешкапиздюк писал(а):

как фильм??

видио для кого?pb.wtf



10-05-2012 15:18 То, что её заводит Скачать торрент  

Судя по трейлеру - это порнография для детей 12-14 лет... pb.wtf



10-05-2012 15:27 То, что её заводит Скачать торрент  

жесткое дерьмо)) :Dpb.wtf



10-05-2012 16:00 То, что её заводит Скачать торрент  

трейлер прикольный. Фильм девчачийpb.wtf



10-05-2012 19:07 То, что её заводит Скачать торрент  

:girl_devil: :rtfm: пипец как только такое можно показывать то..это только для любителей-педофилов. режиссер походу из этих.. и фильм гавнои тема тоже.pb.wtf



15-06-2012 11:41 То, что её заводит Скачать торрент  

Бредятина..ни чего интересногоpb.wtf



    Дорогой пользователь! Огромная просьба, поблагодарите релизера, оцените раздачу и оставьте свои комментарий, если Вы скачали То, что её заводит через торрент бесплатно! Внесите свою лепту в развитие PiratBit!
    Комментировать посты могут только пользователи прошедшие не сложную регистрацию
    Показать сообщения:    

    То, что её заводит через торрент
    Скачать бесплатно То, что её заводит
    То, что её заводит скачать торрент
    То, что её заводит смотреть онлайн
    Cкачать фильм То, что её заводит бесплатно
    То, что её заводит скачать торрент в хорошем качестве
    То, что её заводит смотреть онлайн бесплатно в хорошем качестве


    Вы не можете начинать темы
    Вы не можете отвечать на сообщения
    Вы не можете редактировать свои сообщения
    Вы не можете удалять свои сообщения
    Вы не можете голосовать в опросах
    Вы не можете прикреплять файлы к сообщениям
    Вы можете скачивать файлы