Ссылка на приватное зеркало нашего сайта всего за 1$. Внимание количество ограничено!!!

2 сезон

iTunes

1 сезон

1

iTunes

iTunes

iTunes

1 сезон

RePack

30

ИГРА 18+

pack

ВАЖНО

!!Акция!!

Alien_RageХит недели

RePack

MK11
pack

Забери бонус

RePack

jed

!!Акция!!

Alien_Rage

RePack

fifa19

RePack

Assassins Creed: Odyssey

RePack

NEED FOR SPEED™ PAYBACK

4 сезон

9 сезон

Бесстыжие 9 сезон

Все сериалы

все сериалы на PB.wtf

RePack

FAR CRY 5
  

Красный скорпион / Red Scorpion (Джозеф Зито / Joseph Zito) [1988 г., боевик, приключения, BDRip (720p), DVO] pb.wtf

Красный скорпион через торрент pb.wtf

Размер: 5.95 GB | Добавлен: 8 лет 5 мес. назад | Торрент скачан:17 раз
Скачать  

10-05-2012 15:15 Красный скорпион Скачать торрент  


Красный скорпион / Red Scorpion
Год выпуска: 1988
Страна: США, ЮАР, Намибия
Жанр: боевик, приключения
Продолжительность: 01:45:12
Перевод: Профессиональный (двухголосый, закадровый)
Перевод2: Авторский (одноголосый, закадровый)
Субтитры: русские, английские
Оригинальная аудиодорожка: английский

Режиссер: Джозеф Зито / Joseph Zito





В ролях: Дольф Лундгрен /Dolph Lundgren/, М. Эммет Уолш /M. Emmet Walsh/, Эл Уайт /Al White/, Т. П. МакКенна /T. P. McKenna/, Кармен Ардженциано /Carmen Argenziano/, Алекс Колон /Alex Colon/, Брайон Джеймс /Brion James/ и др.

Описание: Николай Раченко — гордость элитного отряда спецназа, идеальная машина смерти на службе у высшего руководства СССР. В обстановке абсолютной секретности бесстрашный боец получает рискованное задание: устранить в далекой африканской стране лидера повстанцев, бросившего вызов коммунистам.Николай не привык обсуждать приказы, в диких пустошах, среди первобытных племен и кровожадных наемников есть где развернуться его широкой душе и пудовым кулакам, но постепенно он понимает, что является слепым орудием сил зла.Встав жертвой предательства и двойной игры, Николай переходит на сторону своих противников, верша правосудие по своему усмотрению, и вскоре его бывшие командиры понимают, что у них появился смертельно опасный враг.





Качество: BDRip (720p)
Формат: MKV
Видео кодек: H.26x
Аудио кодек: AC3,DTS
Видео: 1280 x 720; 23,976 fps; 6 700 Kbps
Аудио#1: Русский, AC3 5.1 448 Kbps 48,0 КГц(DVO)
Аудио#2: Русский, AC3 2.0 192 Kbps 48,0 КГц(Гаврилов)
Аудио#3: English, DTS 2.0 768 Kbps 48,0 КГц(Оригинал)

G:\HDFILMS\Red.Scorpion.1988.720p.BDRip.2xRus.Eng.mkv
General
Complete name : G:\HDFILMS\Red.Scorpion.1988.720p.BDRip.2xRus.Eng.mkv
Format : Matroska
File size : 5.95 GiB
Duration : 1h 45mn
Overall bit rate : 8 091 Kbps
Movie name : =WhiteHorse=
Encoded date : UTC 2012-02-16 16:25:55
Writing application : mkvmerge v5.2.0 ('I can't explain') built on Dec 18 2011 18:12:03
Writing library : libebml v1.2.3 + libmatroska v1.3.0
Video #1
ID : 1
Format : AVC
Format/Info : Advanced Video Codec
Format profile : High@L4.1
Format settings, CABAC : Yes
Format settings, ReFrames : 6 frames
Muxing mode : Container profile=Unknown@4.1
Codec ID : V_MPEG4/ISO/AVC
Duration : 1h 45mn
Bit rate : 6 700 Kbps
Width : 1 280 pixels
Height : 720 pixels
Display aspect ratio : 16:9
Frame rate : 23.976 fps
Color space : YUV
Chroma subsampling : 4:2:0
Bit depth : 8 bits
Scan type : Progressive
Bits/(Pixel*Frame) : 0.303
Stream size : 4.80 GiB (81%)
Title : Krasnii.skorpion.1988.x264.BDRip.720p.HDTracker
Writing library : x264 core 92 r1510 33d382a
Encoding settings : cabac=1 / ref=6 / deblock=1:-2:-2 / analyse=0x3:0x133 / me=umh / subme=10 / psy=1 / psy_rd=1.00:0.10 / mixed_ref=1 / me_range=32 / chroma_me=1 / trellis=2 / 8x8dct=1 / cqm=0 / deadzone=21,11 / fast_pskip=0 / chroma_qp_offset=-5 / threads=12 / sliced_threads=0 / nr=0 / decimate=1 / interlaced=0 / constrained_intra=0 / bframes=6 / b_pyramid=2 / b_adapt=2 / b_bias=0 / direct=3 / wpredb=1 / wpredp=2 / keyint=250 / keyint_min=23 / scenecut=40 / intra_refresh=0 / rc_lookahead=50 / rc=2pass / mbtree=1 / bitrate=6700 / ratetol=1.0 / qcomp=0.70 / qpmin=10 / qpmax=51 / qpstep=4 / cplxblur=20.0 / qblur=0.5 / vbv_maxrate=40000 / vbv_bufsize=30000 / ip_ratio=1.40 / aq=1:1.00 / nal_hrd=none
Audio #2
ID : 2
Format : AC-3
Format/Info : Audio Coding 3
Mode extension : CM (complete main)
Codec ID : A_AC3
Duration : 1h 45mn
Bit rate mode : Constant
Bit rate : 448 Kbps
Channel(s) : 6 channels
Channel positions : Front: L C R, Side: L R, LFE
Sampling rate : 48.0 KHz
Bit depth : 16 bits
Stream size : 337 MiB (6%)
Title : DVO AC3 5.1 448 kbps
Language : Russian
Audio #3
ID : 3
Format : AC-3
Format/Info : Audio Coding 3
Mode extension : CM (complete main)
Codec ID : A_AC3
Duration : 1h 45mn
Bit rate mode : Constant
Bit rate : 192 Kbps
Channel(s) : 2 channels
Channel positions : Front: L R
Sampling rate : 48.0 KHz
Bit depth : 16 bits
Stream size : 144 MiB (2%)
Title : Gavrilov AC3 2.0 192 kbps
Language : Russian
Audio #4
ID : 4
Format : DTS
Format/Info : Digital Theater Systems
Codec ID : A_DTS
Duration : 1h 45mn
Bit rate mode : Constant
Bit rate : 755 Kbps
Channel(s) : 2 channels
Channel positions : Front: L R
Sampling rate : 48.0 KHz
Bit depth : 24 bits
Stream size : 568 MiB (9%)
Title : Original DTS 2.0 768 kbps
Language : English
Text #5
ID : 5
Format : UTF-8
Codec ID : S_TEXT/UTF8
Codec ID/Info : UTF-8 Plain Text
Language : Russian
Text #6
ID : 6
Format : UTF-8
Codec ID : S_TEXT/UTF8
Codec ID/Info : UTF-8 Plain Text
Language : English

pb.wtf



Скачать Красный скорпион через торрент http://pic.kartinco.top/images/2000/wq1waleopi.png Скачать фильм Красный скорпион через торрент бесплантно в хорошем качестве Описание: Николай Раченко — гордость элитного отряда спецназа, идеальная машина смерти на службе у высшего руководства СССР. В обстановке ... 5 10 1
Info! Золотая раздача, скачанное не засчитывается.
Торрент: Зарегистрирован [2012-05-10 15:15] · скачан: 17 раз
Статус: √ проверено
Размер: 5.95 GB
Как cкачать? Как скачать Красный скорпион через торрент | qTorrent

28-11-2019 20:33  

Отключить всю рекламу на сайте

10-05-2012 15:46 Красный скорпион Скачать торрент  

"А граната у меня большая" :DDDD
Когда-то давно смотрел этот фильм, сейчас конечно это трэшак, но ради ностальгических воспоминаний можно и повторить.pb.wtf



    Дорогой пользователь! Огромная просьба, поблагодарите релизера, оцените раздачу и оставьте свои комментарий, если Вы скачали Красный скорпион через торрент бесплатно! Внесите свою лепту в развитие PiratBit!
    Комментировать посты могут только пользователи прошедшие не сложную регистрацию
    Показать сообщения:    

    Красный скорпион через торрент
    Скачать бесплатно Красный скорпион
    Красный скорпион скачать торрент
    Красный скорпион смотреть онлайн
    Cкачать фильм Красный скорпион бесплатно
    Красный скорпион скачать торрент в хорошем качестве
    Красный скорпион смотреть онлайн бесплатно в хорошем качестве


    Вы не можете начинать темы
    Вы не можете отвечать на сообщения
    Вы не можете редактировать свои сообщения
    Вы не можете удалять свои сообщения
    Вы не можете голосовать в опросах
    Вы не можете прикреплять файлы к сообщениям
    Вы можете скачивать файлы