2 сезон

iTunes

MVO

1

2 сезон

iTunes

iTunes

1 сезон

RePack

30

Новинка

ВАЖНО

ИГРА 18+

pack

RePack

MK11
pack

Легкие деньги

RePack

jed

RePack

fifa19

RePack

RDR2

RePack

NEED FOR SPEED™ PAYBACK

4 сезон

9 сезон

Бесстыжие 9 сезон

Все сериалы

все сериалы на PB.wtf

RePack

FAR CRY 5

Anonymous, доброе утро, мы не успеваем собрать деньги на оплату серверов за декабрь и январь, помогите нам пожалуйста в это трудное время. В качестве благодарности мы отключим Вам всю рекламу на сайте (укажите свой ник в строку Ваше имя)!

×
  
Magnet ссылка

[Lady-Sonia] Lady Sonia (Come For A Ride In My Car With Me) [11.05.2012 г., Stockings, Nylons, Bra, Panties, Vibrator, SATRip] pb.wtf

через торрент pb.wtf

Размер: 378 MB | Добавлен: 8 лет 8 мес. назад | Торрент скачан:73 раза
Скачать  

11-05-2012 13:16 Скачать торрент  

[Lady-Sonia.com]
Lady Sonia
Come For A Ride In My Car With Me
[11.05.2012 г.]

Имя актрисы: Lady Sonia
Название ролика: Come For A Ride In My Car With Me
Подсайт и сайт: Lady-Sonia.com

Год производства: 2012 г.
Жанр: Stockings, Nylons, Bra, Panties, Vibrator
Продолжительность: 00:25:06

Качество: SATRip
Формат видео: MP4
Видео кодек: AVC
Аудио кодек: AAC
Видео: 25.000 fps, 2 006 Kbps, 720x404
Аудио: 93.0 Kbps, 2 channels, 48.0 KHz

Описание:
Ok, so what does a married lady do when her husband is at the office and she is left at home all alone and bored?
Well how about you come for a ride in my car with me?
Well this video was supposed to be shot out and about in public (so I am going to shoot that video next week now)
but after driving around flashing at truck drivers and making myself cum VERY hard as other cars drive past we really didn’t get that far!
This video was HUGE fun to shoot and is really 100% “Gill” rather than “Lady Sonia” as you will see as soon as the video starts…
If you like the idea of a married lady taking you out for a ride in her car so that she can show off her HUGE 34 “F”
cup tits and big brown nipples for you I think you are REALLY going to enjoy this! I really did have HUGE fun shooting this!

General
Complete name : Come For A Ride In My Car With Me.mp4
Format : MPEG-4
Format profile : Base Media / Version 2
Codec ID : mp42
File size : 378 MiB
Duration : 25mn 6s
Overall bit rate mode : Variable
Overall bit rate : 2 102 Kbps
Encoded date : UTC 2012-03-20 06:14:31
Tagged date : UTC 2012-03-20 06:14:31
Writing library : AVS

Video
ID : 1
Format : AVC
Format/Info : Advanced Video Codec
Format profile : Baseline@L1.3
Format settings, CABAC : No
Format settings, ReFrames : 1 frame
Codec ID : avc1
Codec ID/Info : Advanced Video Coding
Duration : 25mn 6s
Bit rate : 2 006 Kbps
Width : 720 pixels
Height : 404 pixels
Display aspect ratio : 16:9
Frame rate mode : Constant
Frame rate : 25.000 fps
Color space : YUV
Chroma subsampling : 4:2:0
Bit depth : 8 bits
Scan type : Progressive
Bits/(Pixel*Frame) : 0.276
Stream size : 360 MiB (95%)
Language : English
Encoded date : UTC 2012-03-20 06:14:31
Tagged date : UTC 2012-03-20 06:14:31

Audio
ID : 2
Format : AAC
Format/Info : Advanced Audio Codec
Format profile : LC
Codec ID : 40
Duration : 25mn 6s
Bit rate mode : Variable
Bit rate : 93.0 Kbps
Maximum bit rate : 96.0 Kbps
Channel(s) : 2 channels
Channel positions : Front: L R
Sampling rate : 48.0 KHz
Compression mode : Lossy
Stream size : 16.7 MiB (4%)
Language : English
Encoded date : UTC 2012-03-20 06:14:31
Tagged date : UTC 2012-03-20 06:14:31
pb.wtf



pack Скачать через торрент http://i36.fastpic.ru/big/2012/0511/78/ba8205c222d221c18bd620bfce5d4478.jpg Скачать фильм [Lady-Sonia] Lady Sonia через торрент бесплантно в хорошем качестве Описание:Ok, so what does a married lady do when her husband is at the office and she is left at home all alone and bored?Well how about ... 10 10 2
Info! Золотая раздача, скачанное не засчитывается.
Торрент: Зарегистрирован [2012-05-11 13:16] · скачан: 73 раз
Статус: √ проверено
Размер: 378 MB
Как cкачать? Как скачать через торрент | UTorrent

28-11-2019 20:33  

Отключить всю рекламу на сайте

    Дорогой пользователь! Огромная просьба, поблагодарите релизера, оцените раздачу и оставьте свои комментарий, если Вы скачали через торрент бесплатно! Внесите свою лепту в развитие PiratBit!
    Комментировать посты могут только пользователи прошедшие не сложную регистрацию
    Показать сообщения:    

    через торрент
    Скачать бесплатно
    скачать торрент
    смотреть онлайн
    Cкачать фильм бесплатно
    скачать торрент в хорошем качестве
    смотреть онлайн бесплатно в хорошем качестве


    Вы не можете начинать темы
    Вы не можете отвечать на сообщения
    Вы не можете редактировать свои сообщения
    Вы не можете удалять свои сообщения
    Вы не можете голосовать в опросах
    Вы не можете прикреплять файлы к сообщениям
    Вы можете скачивать файлы