1 сезон

3 сезон

iTunes

1

iTunes

MVO

iTunes

13

1 сезон

RePack

30

Deluxe

pack

Лицензия

ВАЖНО

ИГРА 18+

pack

RePack

MK11

RePack

jed

RePack

fifa19

RePack

RDR2

RePack

NEED FOR SPEED™ PAYBACK

4 сезон

9 сезон

Бесстыжие 9 сезон

Все сериалы

все сериалы на PB.wtf

RePack

FAR CRY 5

Anonymous, добрый вечер, мы катастрофически не успеваем собрать деньги на оплату серверов, помогите нам пожалуйста 5,10,15р., для нас важна любая помощь . В качестве благодарности мы отключим Вам всю рекламу на сайте (укажите свой ник в строку Ваше имя)!

×
  
Magnet ссылка

Наемники / Mercenaries (Пэрис Леонти) [2011 г., боевик, DVD5, Профессиональный (многоголосый) (лицензия)] pb.wtf

Наемники через торрент pb.wtf

Размер: 3.71 GB | Добавлен: 9 лет 2 мес. назад | Торрент скачан:85 раз
Скачать  

11-05-2012 17:38 Наемники Скачать торрент  

Наемники / Mercenaries

Год выпуска: 2011
Страна: Великобритания
Жанр: боевик
Продолжительность: 01:36:52
Перевод: Профессиональный (многоголосый) (Лицензия)
  • Режиссер: Пэрис Леонти
  • Продюссер: Джон Адамс, Дэвид Коннолли, Пэрис Леонти
  • Сценарий: Пэрис Леонти

  • Лицам до 17 лет обязательно присутствие взрослого

В ролях: Robert Fucilla, Кирсти Митчел, Роб Джеймс-Колльер, Дэнни Сапани, Энтони Бирн, Джофф Белл, Николас Сиди, Майкл Нардон, Вэс Блэквуд, Роберт Болтер

Описание: Энди Марлоу, посылают на Балканы после возникновения военного переворота, чтобы спасти американского посла и его помощника.
  • Качество: DVD5
  • Формат: DVD-Video
  • Видео кодек: MPEG2
  • Аудио кодек: AC3
  • Видео: MPEG 2, 720x576 (4:3), 25.000 fps, 9 000 Kbps (0.482 bit/pixel)
  • Аудио: AC-3, 48.0 KHz, 6 ch, 448 Kbps, CBR

Скриншоты меню
скриншот  скриншот  

Скриншоты
скриншот  скриншот  скриншот  скриншот  

Код:

Title: Naemniki.2011.P.DVD.ELEKTRI4KA
Size: 3.71 Gb ( 3 887 998,00 KBytes ) - DVD-5
Enabled regions: 1, 2, 3, 4, 5, 6, 7, 8

VTS_01 :
  Play Length: 00:00:10
  Video: PAL 4:3 (720x576) VBR
  Audio:
      Russian (Dolby AC3, 2 ch)

VTS_02 :
  Play Length: 01:32:54
  Video: PAL 4:3 (720x576) VBR
  Audio:
      Russian (Dolby AC3, 6 ch)

* Menus Information *

VIDEO_TS Menu
Video:
      PAL 4:3 (720x576) VBR
English Language Unit :
      Title Menu

VTS_01 Menu
Video:
      PAL 4:3 (720x576) VBR
Audio:
      Not specified (Dolby AC3, 2 ch)
English Language Unit :
      Root Menu

VTS_02 Menu
Video:
      PAL 4:3 (720x576) VBR
English Language Unit :
      Root Menu


Код:

Общее
Полное имя                               : F:\Naemniki.2011.P.DVD.ELEKTRI4KA\VIDEO_TS\VTS_02_1.VOB
Формат                                   : MPEG-PS
Размер файла                             : 1024 Мбайт
Продолжительность                        : 25 м.
Режим общего битрейта                    : Переменный
Общий поток                              : 5558 Кбит/сек

Видео
Идентификатор                            : 224 (0xE0)
Формат                                   : MPEG Video
Версия формата                           : Version 2
Профиль формата                          : Main@Main
Параметр BVOP формата                    : Да
Параметр матрицы формата                 : Выборочная
Параметр GOP формата                     : M=3, N=15
Продолжительность                        : 25 м.
Вид битрейта                             : Переменный
Битрейт                                  : 4999 Кбит/сек
Максимальный битрейт                     : 9000 Кбит/сек
Ширина                                   : 720 пикселей
Высота                                   : 576 пикселей
Соотношение сторон                       : 4:3
Частота кадров                           : 25,000 кадров/сек
Стандарт вещания                         : PAL
Цветовое пространство                    : YUV
Субдискретизация насыщенности            : 4:2:0
Битовая глубина                          : 8 бит
Тип развёртки                            : Чересстрочная
Порядок развёртки                        : Нижнее поле первое
Метод сжатия                             : С потерями
Бит/(Пиксели*Кадры)                      : 0.482
Размер потока                            : 921 Мбайт (90%)

Аудио
Идентификатор                            : 189 (0xBD)-128 (0x80)
Формат                                   : AC-3
Формат/Информация                        : Audio Coding 3
Расширение режима                        : CM (complete main)
Параметр Endianness формата              : Big
Режим смешивания                         : DVD-Video
Продолжительность                        : 25 м.
Вид битрейта                             : Постоянный
Битрейт                                  : 448 Кбит/сек
Каналы                                   : 6 каналов
Расположение каналов                     : Front: L C R, Side: L R, LFE
Частота                                  : 48,0 КГц
Битовая глубина                          : 16 бит
Метод сжатия                             : С потерями
Размер потока                            : 82,5 Мбайт (8%)

Меню

pb.wtf



Скачать Наемники через торрент https://pic1.kartinco.top/images/2000/y4f67lxs1b.png Скачать фильм Наемники через торрент бесплантно в хорошем качестве Описание: Энди Марлоу, посылают на Балканы после возникновения военного переворота, чтобы спасти американского посла и его ... 5 10 1
Info! Золотая раздача, скачанное не засчитывается.
Торрент: Зарегистрирован [2012-05-11 17:38] · скачан: 85 раз
Статус: √ проверено
Размер: 3.71 GB
Как cкачать? Как скачать Наемники через торрент | UTorrent

% Раздел Тема Автор DL S | L
Фильмы до 2000 г. [ 1.45 GB ] Наемник / Mercenary [1996 DVDRip] [AVO] killermax2013 Скачать
1 | 0
Фильмы 2011 [ 1.37 GB ] Наемники / Mercenaries [2011 HDRip ] shuller Скачать
1 | 0
Фильмы 2011 [ 1.37 GB ] Наёмники / Mercenaries [2011 HDRip] orton Скачать
1 | 0

28-11-2019 20:33  

Отключить всю рекламу на сайте


11-05-2012 18:25 Наемники Скачать торрент  

Спасибо ..pb.wtf



12-05-2012 10:06 Наемники Скачать торрент  

благодарю!pb.wtf



    Дорогой пользователь! Огромная просьба, поблагодарите релизера, оцените раздачу и оставьте свои комментарий, если Вы скачали Наемники через торрент бесплатно! Внесите свою лепту в развитие PiratBit!
    Комментировать посты могут только пользователи прошедшие не сложную регистрацию
    Показать сообщения:    

    Наемники через торрент
    Скачать бесплатно Наемники
    Наемники скачать торрент
    Наемники смотреть онлайн
    Cкачать фильм Наемники бесплатно
    Наемники скачать торрент в хорошем качестве
    Наемники смотреть онлайн бесплатно в хорошем качестве


    Вы не можете начинать темы
    Вы не можете отвечать на сообщения
    Вы не можете редактировать свои сообщения
    Вы не можете удалять свои сообщения
    Вы не можете голосовать в опросах
    Вы не можете прикреплять файлы к сообщениям
    Вы можете скачивать файлы