1 сезон

3 сезон

iTunes

1

iTunes

MVO

iTunes

13

1 сезон

RePack

30

Deluxe

pack

Лицензия

ВАЖНО

ИГРА 18+

pack

RePack

MK11

RePack

jed

RePack

fifa19

RePack

RDR2

RePack

NEED FOR SPEED™ PAYBACK

4 сезон

9 сезон

Бесстыжие 9 сезон

Все сериалы

все сериалы на PB.wtf

RePack

FAR CRY 5

Anonymous, добрый вечер, мы катастрофически не успеваем собрать деньги на оплату серверов, помогите нам пожалуйста 5,10,15р., для нас важна любая помощь . В качестве благодарности мы отключим Вам всю рекламу на сайте (укажите свой ник в строку Ваше имя)!

×
  
Magnet ссылка

Под прицелом / Pressed (Джастин Доннелли / Justin Donnelly) [2011, триллер, криминал, DVD5] R5 pb.wtf

Под прицелом через торрент pb.wtf

Размер: 3.7 GB | Добавлен: 9 лет 2 мес. назад | Торрент скачан:161 раз
Скачать  

11-05-2012 19:19 Под прицелом Скачать торрент  


Под прицелом / Pressed
Страна: Канада
Студия: QubeFilm
Жанр: триллер, криминал
Год выпуска: 2011
Дата выхода DVD: 7 мая 2012
Продолжительность: 01:40:46
Перевод: Профессиональный (многоголосый закадровый) [Лицензия]
Cубтитры: нет
Режиссер: Джастин Доннелли / Justin Donnelly
В ролях: Люк Госс, Тайлер Джонстон, Майкл Эклунд, Джеффри Баллард, Крэйг Станьетта, Эндрю Хедж, Мишель Брезински, Р. Камерон Гордон, Эрика Кэрролл, Этан Сойер
Описание: Парочка угонщиков машин, Джэсси и Сэм обнаруживают кое-что на заднем сидении автомобиля, что может круто изменить их жизнь. Брайан, не знакомый Джэсси и Сэму, заключает коммерческую сделку, которая поможет ему снова забраться на вершину одной из крупнейших инвестиционных фирм.
Бонусы: нет

Релиз группы:
Качество: DVD5 R5
Формат: DVD-Video
Видео кодек: MPEG2
Аудио кодек: AC3
Видео: PAL 16:9 (720x576(0.434)) MPEG Video, 25,000 кадр/сек, 4496 Кбит/сек
Аудио: Russian (Dolby AC3, 6 ch) 384 Кбит/сек, 48,0 КГц



Title:
Size: 3.70 Gb ( 3 875 084 KBytes ) - DVD-5
Enabled regions: 1, 2, 3, 4, 5, 6, 7, 8

VTS_01 :
Play Length: 00:00:10
Video: PAL 4:3 (720x576) VBR
Audio:
Russian (Dolby AC3, 2 ch)

VTS_02 :
Play Length: 01:40:46
Video: PAL 16:9 (720x576) VBR, Auto Letterboxed
Audio:
Russian (Dolby AC3, 6 ch)

Menu Video:
PAL 4:3 (720x576) VBR
Menu Subtitles:
Not specified
Menu English Language Unit :
Root Menu
Общее
Полное имя : J:\Новинки 2012\Pod.pricelom.2011.DVD5\VIDEO_TS\VTS_02_2.VOB
Формат : MPEG-PS
Размер файла : 1024 Мбайт
Продолжительность : 28 м.
Режим общего битрейта : Переменный
Общий поток : 5044 Кбит/сек

Видео
Идентификатор : 224 (0xE0)
Формат : MPEG Video
Версия формата : Version 2
Профиль формата : Main@Main
Параметр BVOP формата : Да
Параметр матрицы формата : Выборочная
Параметр GOP формата : M=3, N=15
Продолжительность : 28 м.
Вид битрейта : Переменный
Битрейт : 4496 Кбит/сек
Максимальный битрейт : 9000 Кбит/сек
Ширина : 720 пикселей
Высота : 576 пикселей
Соотношение сторон : 16:9
Частота кадров : 25,000 кадров/сек
Стандарт вещания : PAL
Цветовое пространство : YUV
Субдискретизация насыщенности : 4:2:0
Битовая глубина : 8 бит
Тип развёртки : Чересстрочная
Порядок развёртки : Верхнее поле первое
Метод сжатия : С потерями
Бит/(Пиксели*Кадры) : 0.434
Размер потока : 913 Мбайт (89%)

Аудио
Идентификатор : 189 (0xBD)-128 (0x80)
Формат : AC-3
Формат/Информация : Audio Coding 3
Расширение режима : CM (complete main)
Параметр Endianness формата : Big
Режим смешивания : DVD-Video
Продолжительность : 28 м.
Вид битрейта : Постоянный
Битрейт : 448 Кбит/сек
Каналы : 6 каналов
Расположение каналов : Front: L C R, Side: L R, LFE
Частота : 48,0 КГц
Битовая глубина : 16 бит
Метод сжатия : С потерями
Задержка видео : -408 мс.
Размер потока : 90,9 Мбайт (9%)










pb.wtf



Скачать Под прицелом через торрент http://i36.fastpic.ru/big/2012/0511/2f/e867f3649882a0ce1d3f50e14fdc912f.jpg Скачать фильм Под прицелом через торрент бесплантно в хорошем качестве Описание: Парочка угонщиков машин, Джэсси и Сэм обнаруживают кое-что на заднем сидении автомобиля, что может круто изменить их жизнь. ... 5 10 1
Info! Золотая раздача, скачанное не засчитывается.
Торрент: Зарегистрирован [2012-05-11 19:19] · скачан: 161 раз
Статус: √ проверено
Размер: 3.7 GB
Как cкачать? Как скачать Под прицелом через торрент | UTorrent

28-11-2019 20:33  

Отключить всю рекламу на сайте

12-05-2012 09:09 Под прицелом Скачать торрент  

хорош фильм!pb.wtf



12-05-2012 12:02 Под прицелом Скачать торрент  

классpb.wtf



03-02-2013 01:06 Под прицелом Скачать торрент  

Как-то уныло всё, а конец так вообще прямо как предупреждение: "с наркомафией не шутим". Ничего хорошего и классного.pb.wtf



    Дорогой пользователь! Огромная просьба, поблагодарите релизера, оцените раздачу и оставьте свои комментарий, если Вы скачали Под прицелом через торрент бесплатно! Внесите свою лепту в развитие PiratBit!
    Комментировать посты могут только пользователи прошедшие не сложную регистрацию
    Показать сообщения:    

    Под прицелом через торрент
    Скачать бесплатно Под прицелом
    Под прицелом скачать торрент
    Под прицелом смотреть онлайн
    Cкачать фильм Под прицелом бесплатно
    Под прицелом скачать торрент в хорошем качестве
    Под прицелом смотреть онлайн бесплатно в хорошем качестве


    Вы не можете начинать темы
    Вы не можете отвечать на сообщения
    Вы не можете редактировать свои сообщения
    Вы не можете удалять свои сообщения
    Вы не можете голосовать в опросах
    Вы не можете прикреплять файлы к сообщениям
    Вы можете скачивать файлы