1 сезон

1 сезон

iTunes

1

КиноПоиск HD

Кинопоиск HD

iTunes

13

1 сезон

RePack

30

Новинка

ВАЖНО

ИГРА 18+

pack

RePack

MK11
pack

Легкие деньги

RePack

jed

RePack

fifa19

RePack

RDR2

RePack

NEED FOR SPEED™ PAYBACK

4 сезон

9 сезон

Бесстыжие 9 сезон

Все сериалы

все сериалы на PB.wtf

RePack

FAR CRY 5
  
Magnet ссылка

Чуваки / Slackers (Дьюи Никс) [2002 г., Комедия, HDRip, DVO] pb.wtf

Чуваки через торрент pb.wtf

Размер: 4.65 GB | Добавлен: 8 лет 11 мес. назад | Торрент скачан:28 раз
Скачать  

12-05-2012 15:26 Чуваки Скачать торрент  

Чуваки / Slackers

Год выпуска: 2002
Страна: США, Канада
Жанр: Комедия
Продолжительность: 01:26:35
Перевод: Профессиональный (двухголосый)

Режиссер: Дьюи Никс
Продюссер: Кэрри Кук
Сценарий: Дэвид Х. Штейнберг

Бюджет: $14 000 000
Премьера в мире: 1 февраля 2002

http://www.kinopoisk.ru/level/1/film/5417/

В ролях: Девон Сава, Джейсон Сигел, Майкл С. Маронна, Джейсон Шварцман, Джейми Кинг, Лаура Препон, Трэвис Дэвис, Джим Рэш, Нат Факсон, Дон Микаэльсон

Описание: Студeнты Дэйв, Сэм и Джeфф — вeзучиe пaрни и пeрвыe прeтeндeнты нa звaниe «бaкaлaврoв врaнья и бeздeлья». Блaгoдaря xитрoсти и oткрoвeннoму нaxaльству этa «блистaтeльнaя» трoицa рaздoлбaeв кoe-кaк прoучилaсь чeтырe гoдa. Нo тeпeрь, пeрeд пoслeдними экзaмeнaми, друзьям грoзит oтчислeниe. A всeму винoй супeрзубрилa Итaн, узнaвший o прoдeлкax пaрнeй. Угрoжaя рaзoблaчeниeм, Итaн гoтoв «снять иx с крючкa» лишь при oднoм услoвии: Дэйв, Сэм и Джeфф пoмoгут eму зaвoeвaть сeрдцe умницы и крaсaвицы Aнджeлы. Дэйву кaжeтся, чтo oн и eгo приятeли лeгкo прoвeрнут этo дeльцe. Нo, увидeв Aнджeлу, Дeйв влюбляeтся в нee. Тeпeрь, чтoбы успeшнo зaкoнчить кoллeдж, друзьям прeдстoит пeрexитрить Итaнa…

Доп. информация: Есть английские субтитры.

Качество: HDRip
Формат: MKV
Видео кодек: H.26x
Аудио кодек: AC3
Видео: 1280x720, 23.976 fps, 6849 Kbps
Аудио#1: Russian: 48.0 KHz, 6 ch, AC-3, 448 Kbps
Аудио#2: English: 48.0 KHz, 2 ch, AC-3, 384 Kbps
Общее
Уникальный идентификатор : 253203286075581174961727840684292567174 (0xBE7D2DD75616BD3789D99CBB8C79F086)
Полное имя : D:\Загрузки\Slackers.2002.HDTVRip.720p.mkv
Формат : Matroska
Версия формата : Version 2
Размер файла : 4,65 Гбайт
Продолжительность : 1 ч. 26 м.
Общий поток : 7682 Кбит/сек
Дата кодирования : UTC 2010-01-15 21:08:16
Программа кодирования : mkvmerge v2.9.5 ('Tu es le seul') built on Jun 7 2009 11:07:07
Библиотека кодирования : libebml v0.7.7 + libmatroska v0.8.1

Видео
Идентификатор : 1
Формат : AVC
Формат/Информация : Advanced Video Codec
Профиль формата : High@L4.1
Параметр CABAC формата : Да
Параметр ReFrames формата : 9 кадров
Идентификатор кодека : V_MPEG4/ISO/AVC
Продолжительность : 1 ч. 26 м.
Битрейт : 6849 Кбит/сек
Ширина : 1280 пикселей
Высота : 720 пикселей
Соотношение сторон : 16:9
Частота кадров : 23,976 кадра/сек
Цветовое пространство : YUV
Субдискретизация насыщенности : 4:2:0
Битовая глубина : 8 бит
Тип развёртки : Прогрессивная
Бит/(Пиксели*Кадры) : 0.310
Размер потока : 4,05 Гбайт (87%)
Заголовок : Slackers 2002 720p HDTV x264
Библиотека кодирования : x264 core 80 r1369M ec8e586

Аудио #1
Идентификатор : 2
Формат : AC-3
Формат/Информация : Audio Coding 3
Расширение режима : CM (complete main)
Параметр Endianness формата : Big
Идентификатор кодека : A_AC3
Продолжительность : 1 ч. 26 м.
Вид битрейта : Постоянный
Битрейт : 448 Кбит/сек
Каналы : 6 каналов
Расположение каналов : Front: L C R, Side: L R, LFE
Частота : 48,0 КГц
Битовая глубина : 16 бит
Метод сжатия : С потерями
Размер потока : 277 Мбайт (6%)
Язык : Russian
Default : Да
Forced : Нет

Аудио #2
Идентификатор : 3
Формат : AC-3
Формат/Информация : Audio Coding 3
Расширение режима : CM (complete main)
Параметр Endianness формата : Big
Идентификатор кодека : A_AC3
Продолжительность : 1 ч. 26 м.
Вид битрейта : Постоянный
Битрейт : 384 Кбит/сек
Каналы : 2 канала
Расположение каналов : Front: L R
Частота : 48,0 КГц
Битовая глубина : 16 бит
Метод сжатия : С потерями
Размер потока : 238 Мбайт (5%)
Язык : English
Default : Нет
Forced : Нет

Текст
Идентификатор : 4
Формат : UTF-8
Идентификатор кодека : S_TEXT/UTF8
Идентификатор кодека/Информация : UTF-8 Plain Text
Язык : English
Default : Да
Forced : Нет
pb.wtf



Скачать Чуваки через торрент http://s49.radikal.ru/i126/1205/de/a1dbf8e6b4d9.jpg Скачать фильм Чуваки через торрент бесплантно в хорошем качестве Описание: Студeнты Дэйв, Сэм и Джeфф — вeзучиe пaрни и пeрвыe прeтeндeнты нa звaниe «бaкaлaврoв врaнья и бeздeлья». Блaгoдaря xитрoсти и ... 5 10 1
Info! Золотая раздача, скачанное не засчитывается.
Торрент: Зарегистрирован [2012-05-12 15:26] · скачан: 28 раз
Статус: √ проверено
Размер: 4.65 GB
Как cкачать? Как скачать Чуваки через торрент | UTorrent

% Раздел Тема Автор DL S | L
Фильмы 2001-2005 [ 675 MB ] Чуваки / Slackers [2002 DVDRip двухголосый] bryzgalin Скачать
1 | 0


Последний раз редактировалось: Anubis998 (2012-05-12 18:24), всего редактировалось 1 раз

28-11-2019 20:33  

Отключить всю рекламу на сайте

12-05-2012 15:29 Чуваки Скачать торрент  

Моя первая раздача. Строго не судите.pb.wtf



12-05-2012 16:15 Чуваки Скачать торрент  

ФУ ПЕРВАЯ РАЗДАЧА!!!!!!!!!!pb.wtf



12-05-2012 17:46 Чуваки Скачать торрент  

Anubis998
А судить будем! Скриншоты не соответствуют заявленному размеру. Выложи информацию МедиаИнфо.pb.wtf



12-05-2012 18:43 Чуваки Скачать торрент  

Раздачу веду до с 12 утра до 12 ночи.pb.wtf



    Дорогой пользователь! Огромная просьба, поблагодарите релизера, оцените раздачу и оставьте свои комментарий, если Вы скачали Чуваки через торрент бесплатно! Внесите свою лепту в развитие PiratBit!
    Комментировать посты могут только пользователи прошедшие не сложную регистрацию
    Показать сообщения:    

    Чуваки через торрент
    Скачать бесплатно Чуваки
    Чуваки скачать торрент
    Чуваки смотреть онлайн
    Cкачать фильм Чуваки бесплатно
    Чуваки скачать торрент в хорошем качестве
    Чуваки смотреть онлайн бесплатно в хорошем качестве


    Вы не можете начинать темы
    Вы не можете отвечать на сообщения
    Вы не можете редактировать свои сообщения
    Вы не можете удалять свои сообщения
    Вы не можете голосовать в опросах
    Вы не можете прикреплять файлы к сообщениям
    Вы можете скачивать файлы