Ссылка на приватное зеркало нашего сайта всего за 1$. Внимание количество ограничено!!!

2 сезон

iTunes

1 сезон

1

2 сезон

2 сезон

iTunes

1 сезон

RePack

30

Новинка

ВАЖНО

ИГРА 18+

pack

RePack

MK11
pack

Забери бонус

RePack

jed

!!Акция!!

Alien_Rage

RePack

fifa19

RePack

Assassins Creed: Odyssey

RePack

NEED FOR SPEED™ PAYBACK

4 сезон

9 сезон

Бесстыжие 9 сезон

Все сериалы

все сериалы на PB.wtf

RePack

FAR CRY 5
  

Няньки (Ашот Кещян) [2012 г., комедия, DVDRip-AVC, лицензия] pb.wtf

Няньки через торрент pb.wtf

Размер: 1.36 GB | Добавлен: 8 лет 6 мес. назад | Торрент скачан:856 раз
Скачать  

13-05-2012 07:22 Няньки Скачать торрент  

Няньки




Год выпуска: 2012
Страна: Россия, Enjoy Movies
Жанр: комедия
Продолжительность: 01:31:12
Перевод: Оригинал [лицензия]


Режиссер: Ашот Кещян
В ролях: Николай Наумов, Арарат Кещян, Людмила Артемьева, Аглая Шиловская, Лина Добророднова, Илья Костюков, Глеб Сердюков, Олеся Железняк, Дитер Брандекер, Майкл Бэрал

Описание: Валентина — жесткая, хладнокровная владелица крупной туристической фирмы, которой предстоит решение сложной задачи в стране, где женщину, независимо от профессионализма, не может ждать успех в бизнесе — Турции. На помощь она вызывает работников своего уральского филиала Диму и Мишу — безынициативных лодырей, по несчастливой случайности оказавшихся единственными сотрудниками мужского пола.

Автор рипа: Freedom (Сравнение скриншотов с 1,48 Гб)


Качество: DVDRip
Формат: AVC
Видео кодек: x264
Аудио кодек: AC3
Видео: 1024x432 (2.35:1), 25.000 fps, 1 720 Kbps (0.156 bit/pixel)
Аудио: 48.0 KHz, 6 ch, 448 Kbps, CBR



General
Unique ID : 202756435911364879534987517778228177209 (0x9889781928A77FC6BE4D7F27C2A46939)
Complete name : D:\Movies\Мои релизы\Njanki.2012.O.DVDRip.x264.mkv
Format : Matroska
Format version : Version 2
File size : 1.36 GiB
Duration : 1h 29mn
Overall bit rate : 2 170 Kbps
Encoded date : UTC 2012-05-13 05:09:21
Writing application : mkvmerge v5.0.1 ('Es ist Sommer') built on Nov 6 2011 16:23:40
Writing library : libebml v1.2.2 + libmatroska v1.3.0

Video
ID : 1
Format : AVC
Format/Info : Advanced Video Codec
Format profile : High@L4.1
Format settings, CABAC : Yes
Format settings, ReFrames : 9 frames
Codec ID : V_MPEG4/ISO/AVC
Duration : 1h 29mn
Bit rate : 1 720 Kbps
Width : 1 024 pixels
Height : 432 pixels
Display aspect ratio : 2.40:1
Frame rate : 25.000 fps
Color space : YUV
Chroma subsampling : 4:2:0
Bit depth : 8 bits
Scan type : Progressive
Bits/(Pixel*Frame) : 0.156
Stream size : 1.06 GiB (77%)
Writing library : x264 core 119 r2106 07efeb4
Encoding settings : cabac=1 / ref=9 / deblock=1:-3:-3 / analyse=0x3:0x133 / me=umh / subme=10 / psy=1 / psy_rd=1.00:0.10 / mixed_ref=1 / me_range=32 / chroma_me=1 / trellis=2 / 8x8dct=1 / cqm=0 / deadzone=21,11 / fast_pskip=0 / chroma_qp_offset=-3 / threads=6 / sliced_threads=0 / nr=0 / decimate=1 / interlaced=0 / bluray_compat=0 / constrained_intra=0 / bframes=9 / b_pyramid=2 / b_adapt=2 / b_bias=0 / direct=3 / weightb=1 / open_gop=0 / weightp=2 / keyint=250 / keyint_min=25 / scenecut=40 / intra_refresh=0 / rc_lookahead=50 / rc=2pass / mbtree=1 / bitrate=1720 / ratetol=1.0 / qcomp=0.60 / qpmin=0 / qpmax=69 / qpstep=4 / cplxblur=20.0 / qblur=0.5 / ip_ratio=1.40 / aq=1:1.00
Default : Yes
Forced : No

Audio
ID : 2
Format : AC-3
Format/Info : Audio Coding 3
Mode extension : CM (complete main)
Format settings, Endianness : Big
Codec ID : A_AC3
Duration : 1h 29mn
Bit rate mode : Constant
Bit rate : 448 Kbps
Channel(s) : 6 channels
Channel positions : Front: L C R, Side: L R, LFE
Sampling rate : 48.0 KHz
Bit depth : 16 bits
Compression mode : Lossy
Stream size : 288 MiB (21%)
Default : Yes
Forced : No

pb.wtf



Скачать Няньки через торрент http://pic.kartinco.top/images/2000/l9mdwhuhkw.jpg Скачать фильм Няньки через торрент бесплантно в хорошем качестве Описание: Валентина — жесткая, хладнокровная владелица крупной туристической фирмы, которой предстоит решение сложной задачи в стране, где ... 9.7 10 3
Info! Золотая раздача, скачанное не засчитывается.
Торрент: Зарегистрирован [2012-05-13 07:22] · скачан: 856 раз
Статус: √ проверено
Размер: 1.36 GB
Как cкачать? Как скачать Няньки через торрент | qTorrent

% Раздел Тема Автор DL S | L
Фильмы (WEB-DL 720p, 1080p) [ 4.01 GB ] Лысый нянька: Спецзадание / The Pacifier [2005 WEB-DL 1080p] [Локализованный видеоряд] killermax2013 Скачать
2 | 0
Фильмы [HD 720p, 1080p] (Хороший звук DUB, MVO) [ 4.55 GB ] Лысый нянька: спецзадание / The Pacifier [2005 BDRip + оригинал ] markfiter Скачать
1 | 0
Фильмы 2018 [DVDrip, WEB-DLRip, HDrip] (DUB, MVO) [ 1.38 GB ] Нянька на рождество / Засада / Kalte Füße / Cold Feet [2018 HDRip] MVO bober100 Скачать
1 | 0
T Фильмы [HD 720p, 1080p] (Хороший звук DUB, MVO) [ 2.96 GB ] Нянька на рождество / Засада / Kalte Füße / Cold Feet [2018 BDRip 720p] MVO bober100 Скачать
1 | 0
T Фильмы [HD 720p, 1080p] (Хороший звук DUB, MVO) [ 5.19 GB ] Нянька на рождество / Засада / Kalte Füße / Cold Feet [2018 BDRip 1080p] MVO bober100 Скачать
1 | 0
Фильмы [HD 720p, 1080p] (Хороший звук DUB, MVO) [ 8.29 GB ] Нянька по вызову / The Rebound [2009 BDRip 1080p by msltel] DUB msltel Скачать
2 | 0
Фильмы [HD 720p, 1080p] (Хороший звук DUB, MVO) [ 3.74 GB ] Нянька по вызову / The Rebound [2009 BDRip 720p by msltel] DUB msltel Скачать
1 | 0

28-11-2019 20:33  

Отключить всю рекламу на сайте

13-05-2012 07:30 Няньки Скачать торрент  

спасибооpb.wtf



13-05-2012 07:32 Няньки Скачать торрент  

Надеюсь до выхода блюрея, раздача будет жива (тут нормальный размер)
Приятного просмотра...pb.wtf



    Дорогой пользователь! Огромная просьба, поблагодарите релизера, оцените раздачу и оставьте свои комментарий, если Вы скачали Няньки через торрент бесплатно! Внесите свою лепту в развитие PiratBit!
    Комментировать посты могут только пользователи прошедшие не сложную регистрацию
    Показать сообщения:    

    Няньки через торрент
    Скачать бесплатно Няньки
    Няньки скачать торрент
    Няньки смотреть онлайн
    Cкачать фильм Няньки бесплатно
    Няньки скачать торрент в хорошем качестве
    Няньки смотреть онлайн бесплатно в хорошем качестве


    Вы не можете начинать темы
    Вы не можете отвечать на сообщения
    Вы не можете редактировать свои сообщения
    Вы не можете удалять свои сообщения
    Вы не можете голосовать в опросах
    Вы не можете прикреплять файлы к сообщениям
    Вы можете скачивать файлы