Ссылка на приватное зеркало нашего сайта всего за 1$. Внимание количество ограничено!!!

2 сезон

iTunes

1 сезон

1

iTunes

iTunes

iTunes

1 сезон

RePack

30

ИГРА 18+

pack

ВАЖНО

!!Акция!!

Alien_RageХит недели

RePack

MK11
pack

Забери бонус

RePack

jed

!!Акция!!

Alien_Rage

RePack

fifa19

RePack

Assassins Creed: Odyssey

RePack

NEED FOR SPEED™ PAYBACK

4 сезон

9 сезон

Бесстыжие 9 сезон

Все сериалы

все сериалы на PB.wtf

RePack

FAR CRY 5
  

Зубная фея 2 / Tooth Fairy 2 (Алекс Замм) [2012 г., комедия, семейный, BDRip (720p), Профессиональное (многоголосое) + Оригинал] pb.wtf

Зубная фея 2 через торрент pb.wtf

Размер: 4.6 GB | Добавлен: 8 лет 5 мес. назад | Торрент скачан:51 раз
Скачать  

13-05-2012 11:36 Зубная фея 2 Скачать торрент  

Зубная фея 2 / Tooth Fairy 2

Год выпуска: 2012
Страна: США / Parallel Entertainment, Walden Media
Жанр: комедия, семейный
Продолжительность: 01:30:18
Перевод: Профессиональное (многоголосое) [лицензия] + Оригинал

Режиссер: Алекс Замм

В ролях: Ларри Кейбл Гай, Дэвид Маккей, Брэйди Рейтер, Люсиус Бастон мл., Джейкоб Бертран, Шерил Карбонелл

Описание: Потеряв девушку, Ларри пытается все исправить, но случайно ему удается обидить одного ребенка сказав, что Зубной Феи не существует. За это Ларри наказывает 500-летняя Зубная Фея. Теперь ему предстоит отработать неделю феей и принести им 10 молочных зубов, иначе его лишат лучшего воспоминания в жизни.

Качество: BDRip (720p)
Формат: MKV
Видео кодек: AVC
Аудио кодек: AC3
Видео: AVC, 1280x720 (16:9), 23.976 fps, 5 396 Kbps (0.244 bit/pixel)
Аудио#1: AC-3, 48.0 KHz, 6 ch, 384 Kbps, CBR (Russian)
Аудио#2: DTS, 48.0 KHz, 6 ch, 1 510 Kbps, CBR (English)
Субтитры: Russian, Russian, English

General
Unique ID : 246955849555180711010742876125582510412 (0xB9C9F77079BFBA42AC689624BDBEC94C)
Complete name : D:\Zubnaja.Feja.2.2012.P.BDRip.720p.IRONCLUB.mkv
Format : Matroska
File size : 4.60 GiB
Duration : 1h 30mn
Overall bit rate : 7 289 Kbps
Movie name : Tooth Fairy 2 (2012).....:::IRONCLUB:::.....
Encoded date : UTC 2012-05-13 06:27:04
Writing application : mkvmerge v4.9.1 ('Ich will') сборка от Jul 11 2011 23:53:15
Writing library : libebml v1.2.1 + libmatroska v1.1.1

Video
ID : 1
Format : AVC
Format/Info : Advanced Video Codec
Format profile : High@L4.1
Format settings, CABAC : Yes
Format settings, ReFrames : 5 frames
Codec ID : V_MPEG4/ISO/AVC
Duration : 1h 30mn
Bit rate mode : Variable
Bit rate : 5 396 Kbps
Maximum bit rate : 8 000 Kbps
Width : 1 280 pixels
Height : 720 pixels
Display aspect ratio : 16:9
Frame rate : 23.976 fps
Color space : YUV
Chroma subsampling : 4:2:0
Bit depth : 8 bits
Scan type : Progressive
Bits/(Pixel*Frame) : 0.244
Stream size : 3.31 GiB (72%)
Title : Tooth Fairy 2 (2012).....:::IRONCLUB:::.....
Writing library : x264 core 122 r2184 5c85e0a
Encoding settings : cabac=1 / ref=5 / deblock=1:0:0 / analyse=0x3:0x133 / me=umh / subme=7 / psy=1 / psy_rd=1.00:0.00 / mixed_ref=1 / me_range=16 / chroma_me=1 / trellis=1 / 8x8dct=1 / cqm=0 / deadzone=21,11 / fast_pskip=1 / chroma_qp_offset=-2 / threads=6 / sliced_threads=0 / nr=0 / decimate=1 / interlaced=0 / bluray_compat=0 / constrained_intra=0 / bframes=5 / b_pyramid=0 / b_adapt=1 / b_bias=0 / direct=1 / weightb=1 / open_gop=0 / weightp=2 / keyint=240 / keyint_min=24 / scenecut=40 / intra_refresh=0 / rc_lookahead=40 / rc=2pass / mbtree=1 / bitrate=5396 / ratetol=1.0 / qcomp=0.60 / qpmin=0 / qpmax=69 / qpstep=4 / cplxblur=20.0 / qblur=0.5 / vbv_maxrate=8000 / vbv_bufsize=25000 / nal_hrd=vbr / ip_ratio=1.40 / aq=1:1.00
Language : English

Audio #1
ID : 2
Format : AC-3
Format/Info : Audio Coding 3
Mode extension : CM (complete main)
Codec ID : A_AC3
Duration : 1h 30mn
Bit rate mode : Constant
Bit rate : 384 Kbps
Channel(s) : 6 channels
Channel positions : Front: L C R, Side: L R, LFE
Sampling rate : 48.0 KHz
Bit depth : 16 bits
Compression mode : Lossy
Stream size : 248 MiB (5%)
Title : DD 5.1 @ 384 kbps - MVO, R5
Language : Russian

Audio #2
ID : 3
Format : DTS
Format/Info : Digital Theater Systems
Codec ID : A_DTS
Duration : 1h 30mn
Bit rate mode : Constant
Bit rate : 1 510 Kbps
Channel(s) : 6 channels
Channel positions : Front: L C R, Side: L R, LFE
Sampling rate : 48.0 KHz
Bit depth : 24 bits
Compression mode : Lossy
Stream size : 975 MiB (21%)
Title : DTS 5.1 @ 1536 kbps
Language : English

Text #1
ID : 4
Format : UTF-8
Codec ID : S_TEXT/UTF8
Codec ID/Info : UTF-8 Plain Text
Title : Full
Language : Russian

Text #2
ID : 5
Format : UTF-8
Codec ID : S_TEXT/UTF8
Codec ID/Info : UTF-8 Plain Text
Title : Forced
Language : Russian

Text #3
ID : 6
Format : UTF-8
Codec ID : S_TEXT/UTF8
Codec ID/Info : UTF-8 Plain Text
Language : English

pb.wtf



Скачать Зубная фея 2 через торрент http://rghost.ru/38058928/image.png Скачать фильм Зубная фея 2 через торрент бесплантно в хорошем качестве Описание: Потеряв девушку, Ларри пытается все исправить, но случайно ему удается обидить одного ребенка сказав, что Зубной Феи не ... 5 10 1
Info! Золотая раздача, скачанное не засчитывается.
Торрент: Зарегистрирован [2012-05-13 11:36] · скачан: 51 раз
Статус: √ проверено
Размер: 4.6 GB
Как cкачать? Как скачать Зубная фея 2 через торрент | qTorrent

28-11-2019 20:33  

Отключить всю рекламу на сайте

13-05-2012 14:25 Зубная фея 2 Скачать торрент  

нету голосов(((((((((pb.wtf



13-05-2012 15:54 Зубная фея 2 Скачать торрент  

Посмотрим. Спасибо.pb.wtf



    Дорогой пользователь! Огромная просьба, поблагодарите релизера, оцените раздачу и оставьте свои комментарий, если Вы скачали Зубная фея 2 через торрент бесплатно! Внесите свою лепту в развитие PiratBit!
    Комментировать посты могут только пользователи прошедшие не сложную регистрацию
    Показать сообщения:    

    Зубная фея 2 через торрент
    Скачать бесплатно Зубная фея 2
    Зубная фея 2 скачать торрент
    Зубная фея 2 смотреть онлайн
    Cкачать фильм Зубная фея 2 бесплатно
    Зубная фея 2 скачать торрент в хорошем качестве
    Зубная фея 2 смотреть онлайн бесплатно в хорошем качестве


    Вы не можете начинать темы
    Вы не можете отвечать на сообщения
    Вы не можете редактировать свои сообщения
    Вы не можете удалять свои сообщения
    Вы не можете голосовать в опросах
    Вы не можете прикреплять файлы к сообщениям
    Вы можете скачивать файлы