Ссылка на приватное зеркало нашего сайта всего за 1$. Внимание количество ограничено!!!

2 сезон

iTunes

1 сезон

1

2 сезон

2 сезон

iTunes

1 сезон

RePack

30

Ultimate

ВАЖНО

ИГРА 18+

pack

RePack

MK11
pack

Забери бонус

RePack

jed

!!Акция!!

Alien_Rage

RePack

fifa19

RePack

Assassins Creed: Odyssey

RePack

NEED FOR SPEED™ PAYBACK

4 сезон

9 сезон

Бесстыжие 9 сезон

Все сериалы

все сериалы на PB.wtf

RePack

FAR CRY 5
  

Никита / Nikita (Дэнни Кэннон)[Cезон 2, Серия 1-21 (22)] [2012 г., драма, 720p WEB-DLRip, DVONewStudio] pb.wtf

Никита через торрент pb.wtf

Размер: 28.93 GB | Добавлен: 8 лет 6 мес. назад | Торрент скачан:14 раз
Скачать  

13-05-2012 17:37 Никита Скачать торрент  

Никита / Nikita
Год выпуска: 2012
Страна: США
Жанр: драма
Продолжительность: ~ 00:44:00
Перевод: Профессиональный (двухголосый) NewStudio

Режиссер: Дэнни Кэннон

В ролях: Мэгги Кью, Тиффани Хайнс, Линдси Фонсека, Шэйн Уэст, Аарон Стэнфорд, Мелинда Кларк, Ксандер Беркли, Эштон Холмс, Нил Дэвисон, Марк Дэй и др.

Описание: Когда Никита была крайне проблемным тинейджером, от смерти её спасло секретное агентство США, известное как Подразделение, которое подстроило её казнь и убедило, что ей дали второй шанс начать новую жизнь и возможность послужить своей стране. Однако ей не сказали, что её тренировали как шпионку и убийцу. В конце концов Никиту предали и все её мечты были разрушены людьми, которым, как она думала, можно было доверять.

После трех лет в бегах Никита ищет возмездия, ясно дав понять своим бывшим боссам, что она ни перед чем не остановится, чтобы разоблачить и уничтожить их секретное управление. Однако на данный момент Подразделение продолжает набирать рекрутов и обучать молодых людей, стирая любую информацию об их прежней жизни и делая из них хладнокровных и квалифицированных убийц. Одна из новых рекрутов, Алекс, только начинает понимать, что ждет ее в будущем и почему легендарная Никита приняла отчаянную попытку бежать.

Качество: 720p WEB-DLRip
Формат: MKV
Видео кодек: AVC
Аудио кодек: AC3
Видео: AVC, 1280x720 (16:9), 23.976 fps, 3 806 Kbps (0.172 bit/pixel)
Аудио#1: AC-3, 48.0 KHz, 2 ch, 192 Kbps, CBR (Russian)
Аудио#2: AC-3, 48.0 KHz, 6 ch, 384 Kbps, CBR (English)
Субтитры: Русские English
Раздача ведётся путём добавления новых серий; при каждом добавлении создаётся новый торрент. Чтобы начать докачку новой серии, пользователям необходимо сделать следующее:
(1) остановить скачивание,
(2) удалить старый торрент у себя из клиента (старые серии удалять не надо),
(3) скачать новый торрент и запустить его у себя в клиенте вместо старого, при этом указать клиенту путь в старую папку куда и должно происходить скачивание новых серий.

Ваш клиент при этом должен произвести хеширование (проверку) старой папки (если не производит сам - помогите ему сделать это), и будет докачивать только те серии которых у вас ещё нет. Старые серии при этом не удаляются, а продолжают раздаваться!

Eсли вы уже удалили старые серии, то предотвратить повторную закачку старых серий можно, отжав галочку в соответствующих местах при запуске нового торрента. По возможности, желательно не удалять старые серии как можно дольше чтобы релизёр не столько продолжал раздавать старые серии, а смог сконцентрироваться на новых.

General
Unique ID : 224606118761651265488991497716701465340 (0xA8F990A2A1C4C689AF5A5931ACDA0AFC)
Complete name : D:\Nikita_s2\Nikita.s02e01.720p.WEB-DL.NewStudio.TV.mkv
Format : Matroska
File size : 1.33 GiB
Duration : 42mn 28s
Overall bit rate : 4 471 Kbps
Encoded date : UTC 2011-09-26 13:10:12
Writing application : mkvmerge v4.9.1 ('Ich will') сборка от Jul 11 2011 23:53:15
Writing library : libebml v1.2.1 + libmatroska v1.1.1

Video
ID : 1
Format : AVC
Format/Info : Advanced Video Codec
Format profile : High@L3.1
Format settings, CABAC : No
Format settings, ReFrames : 2 frames
Codec ID : V_MPEG4/ISO/AVC
Duration : 42mn 28s
Bit rate : 3 806 Kbps
Width : 1 280 pixels
Height : 720 pixels
Display aspect ratio : 16:9
Frame rate : 23.976 fps
Color space : YUV
Chroma subsampling : 4:2:0
Bit depth : 8 bits
Scan type : Progressive
Bits/(Pixel*Frame) : 0.172
Stream size : 1.13 GiB (85%)
Language : English
Color primaries : BT.709-5, BT.1361, IEC 61966-2-4, SMPTE RP177
Transfer characteristics : BT.709-5, BT.1361
Matrix coefficients : BT.709-5, BT.1361, IEC 61966-2-4 709, SMPTE RP177

Audio #1
ID : 2
Format : AC-3
Format/Info : Audio Coding 3
Mode extension : CM (complete main)
Codec ID : A_AC3
Duration : 42mn 28s
Bit rate mode : Constant
Bit rate : 192 Kbps
Channel(s) : 2 channels
Channel positions : Front: L R
Sampling rate : 48.0 KHz
Bit depth : 16 bits
Compression mode : Lossy
Stream size : 58.3 MiB (4%)
Language : Russian

Audio #2
ID : 3
Format : AC-3
Format/Info : Audio Coding 3
Mode extension : CM (complete main)
Codec ID : A_AC3
Duration : 42mn 28s
Bit rate mode : Constant
Bit rate : 384 Kbps
Channel(s) : 6 channels
Channel positions : Front: L C R, Side: L R, LFE
Sampling rate : 48.0 KHz
Bit depth : 16 bits
Compression mode : Lossy
Stream size : 117 MiB (9%)
Language : English

pb.wtf



Скачать Никита через торрент http://piratbit.in.ua/bbb00394fc7ad51f6c0e7e424a05192d.jpg Скачать фильм Никита через торрент бесплантно в хорошем качестве Описание: Когда Никита была крайне проблемным тинейджером, от смерти её спасло секретное агентство США, известное как Подразделение, ... 4 10 2
Info! Золотая раздача, скачанное не засчитывается.
Торрент: Зарегистрирован [2012-05-13 17:37] · скачан: 14 раз
Статус: √ проверено
Размер: 28.93 GB
Как cкачать? Как скачать Никита через торрент | qTorrent

% Раздел Тема Автор DL S | L
Фильмы до 2000 г. [ 1.46 GB ] Маленький Никита / Little Nikita [1988 DVDRip ] Скорпион1976 Скачать
1 | 0
Гонзо [ 1.23 GB ] Никита звезда порно! / Nikita A Star is Porn ! [2016 All Sex Anal Big Asses Big Boobs Oral Blowjob Threesome WEB-DLRip Оригинальный] Pir@tya2010 Скачать
1 | 0
Фильмы (BDRip, HDrip-AVC) (48-60 fps) [ 2.32 GB ] Никита / Nikita [1990 BDRip-AVC 60fps MVO] от R.G. HD-Films slaventi-69 Скачать
1 | 1
Гонзо [ 1.37 GB ] Никита и её подруги заставляют себя трахать / Nikita et Ses Copines se Font Défoncer [2014 Group Orgy Anal Rough Sex Big Tits Fetish BJ Facial Gonzo Hardcore All Sex WEB-DLRip Оригинал] Pir@tya2010 Скачать
1 | 0
HD ролики [ 556 MB ] Никита борется за ученика / Nikita Von James [2013 All sex BigTits Blonde MILF&Mature PornStars HD 720p] sheker187 Скачать
1 | 0
Порно фильмы с сюжетом [ 1.77 GB ] Никита XXX / Nikita XXX [2012 Feature Couples Vignettes PornStars Spoofs & Parodies DVDRip-AVC Оригинал] sheker187 Скачать
1 | 0
Зарубежные сериалы [ 10.21 GB ] Никита / Nikita / Сезон: 3 / Серии: 1-19 [2012 WEB-DLRip] DVO wekotila Скачать
1 | 0


Последний раз редактировалось: ~Relizer~ (2012-05-13 18:44), всего редактировалось 4 раз(а)

28-11-2019 20:33  

Отключить всю рекламу на сайте

29-10-2012 18:46 Никита Скачать торрент  

Встаньте кто-нибудь на раздачу то.pb.wtf



    Дорогой пользователь! Огромная просьба, поблагодарите релизера, оцените раздачу и оставьте свои комментарий, если Вы скачали Никита через торрент бесплатно! Внесите свою лепту в развитие PiratBit!
    Комментировать посты могут только пользователи прошедшие не сложную регистрацию
    Показать сообщения:    

    Никита через торрент
    Скачать бесплатно Никита
    Никита скачать торрент
    Никита смотреть онлайн
    Cкачать фильм Никита бесплатно
    Никита скачать торрент в хорошем качестве
    Никита смотреть онлайн бесплатно в хорошем качестве


    Вы не можете начинать темы
    Вы не можете отвечать на сообщения
    Вы не можете редактировать свои сообщения
    Вы не можете удалять свои сообщения
    Вы не можете голосовать в опросах
    Вы не можете прикреплять файлы к сообщениям
    Вы можете скачивать файлы