Ссылка на приватное зеркало нашего сайта всего за 1$. Внимание количество ограничено!!!

2 сезон

iTunes

1 сезон

1

iTunes

iTunes

iTunes

1 сезон

RePack

30

ИГРА 18+

pack

ВАЖНО

!!Акция!!

Alien_RageХит недели

RePack

MK11
pack

Забери бонус

RePack

jed

!!Акция!!

Alien_Rage

RePack

fifa19

RePack

Assassins Creed: Odyssey

RePack

NEED FOR SPEED™ PAYBACK

4 сезон

9 сезон

Бесстыжие 9 сезон

Все сериалы

все сериалы на PB.wtf

RePack

FAR CRY 5
  

Игры дьявола / Before the Devil Knows You're Dead (Сидни Люмет) [2007 г., триллер, драма, криминал, BDRip (1080p), DUB + Оригинал] pb.wtf

Игры дьявола через торрент pb.wtf

Размер: 11.87 GB | Добавлен: 8 лет 5 мес. назад | Торрент скачан:22 раза
Скачать  

14-05-2012 11:27 Игры дьявола Скачать торрент  


Игры дьявола / Before the Devil Knows You're Dead
«Мы убиваем тех, кем дорожим...»Год выпуска: 2007
Страна: США
Жанр: триллер, драма, криминал
Продолжительность: 01:56:43
Перевод: Дубляж + Оригинал

Режиссер: Сидни Люмет

В ролях: Филип Сеймур Хоффман, Этан Хоук, Альберт Финни, Мариса Томей, Алекса Палладино, Майкл Шеннон, Эми Райан, Сара Ливингстон, Брайан Ф. О’Бирн, Розмари Харрис

Описание: Два брата замыслили идеальное, как им кажется, преступление. В теории они должны получить огромную сумму денег, обойдясь при этом без оружия, жестокости и кровопролития. Более того, вероятность неудачи сведена к нулю. Однако хитроумный план идет прахом, когда соучастник героев самовольно меняет правила игры, и подвергает себя и подельников неоправданному риску. Преступники теряют контроль над ситуацией, а череда последующих событий, увы, никого не оставляет в безопасности...

Качество: BDRip (1080p)Источник: Before the Devil Knows You're Dead 2007 BluRay 1080p AVC DTS-HD MA 5.1-HDRoad
Формат: MKV
Видео кодек: AVC
Аудио кодек: DTS
Видео: 1920x1040 at 23.976 fps, x264@L4.1, 2pass, ~10557 kbps avg
Аудио#1: Russian: 48 kHz, DTS, 3/2 (L,C,R,l,r) + LFE ch, ~768.00 kbps avg |Дубляж, R5|
Аудио#2: Russian: 48 kHz, DTS, 3/2 (L,C,R,l,r) + LFE ch, ~1536.00 kbps avg |Одноголосый закадровый, Ю.Сербин|
Аудио#3: English: 48 kHz, DTS, 3/2 (L,C,R,l,r) + LFE ch, ~1536.00 kbps avg
Аудио#4: English: 48 kHz, AC3, 2/0 (L,R) ch, ~224.00 kbps avg |Commentary|
Субтитры: Ukrainian, English

General
Unique ID : 245045351009000510028953322795417081249 (0xB85A0496ACB0B8588399FF43CACE15A1)
Complete name : D:\Before.The.Devil.Knows.You're.Dead.2007.1080p.BluRay.2xRus.2xEng.HDCLUB.mkv
Format : Matroska
File size : 11.9 GiB
Duration : 1h 56mn
Overall bit rate : 14.6 Mbps
Movie name : Before the Devil Knows You're Dead (2007) - Release for HDCLUB by Lostik
Encoded date : UTC 2012-05-13 02:18:50
Writing application : mkvmerge v5.2.0 ('I can't explain') built on Dec 18 2011 18:12:03
Writing library : libebml v1.2.3 + libmatroska v1.3.0

Video
ID : 1
Format : AVC
Format/Info : Advanced Video Codec
Format profile : High@L4.1
Format settings, CABAC : Yes
Format settings, ReFrames : 4 frames
Codec ID : V_MPEG4/ISO/AVC
Duration : 1h 56mn
Bit rate : 10.6 Mbps
Width : 1 920 pixels
Height : 1 040 pixels
Display aspect ratio : 16:9
Frame rate : 23.976 fps
Color space : YUV
Chroma subsampling : 4:2:0
Bit depth : 8 bits
Scan type : Progressive
Bits/(Pixel*Frame) : 0.221
Stream size : 8.37 GiB (71%)
Title : Release for HDCLUB
Writing library : x264 core 120 r2146 bcd41db
Encoding settings : cabac=1 / ref=4 / deblock=1:-3:-3 / analyse=0x3:0x133 / me=umh / subme=10 / psy=1 / psy_rd=1.00:0.10 / mixed_ref=1 / me_range=64 / chroma_me=1 / trellis=2 / 8x8dct=1 / cqm=0 / deadzone=21,11 / fast_pskip=0 / chroma_qp_offset=-3 / threads=12 / sliced_threads=0 / nr=0 / decimate=0 / interlaced=0 / bluray_compat=0 / constrained_intra=0 / bframes=8 / b_pyramid=2 / b_adapt=2 / b_bias=0 / direct=3 / weightb=1 / open_gop=0 / weightp=2 / keyint=360 / keyint_min=2 / scenecut=40 / intra_refresh=0 / rc_lookahead=60 / rc=2pass / mbtree=1 / bitrate=10560 / ratetol=1.0 / qcomp=0.70 / qpmin=0 / qpmax=69 / qpstep=4 / cplxblur=20.0 / qblur=0.5 / vbv_maxrate=50000 / vbv_bufsize=45000 / nal_hrd=none / ip_ratio=1.40 / aq=2:1.00
Language : English

Audio #1
ID : 2
Format : DTS
Format/Info : Digital Theater Systems
Codec ID : A_DTS
Duration : 1h 56mn
Bit rate mode : Constant
Bit rate : 755 Kbps
Channel(s) : 6 channels
Channel positions : Front: L C R, Side: L R, LFE
Sampling rate : 48.0 KHz
Bit depth : 24 bits
Compression mode : Lossy
Stream size : 630 MiB (5%)
Title : DTS 5.1 @ 768 kbps - DUB
Language : Russian

Audio #2
ID : 3
Format : DTS
Format/Info : Digital Theater Systems
Codec ID : A_DTS
Duration : 1h 56mn
Bit rate mode : Constant
Bit rate : 1 510 Kbps
Channel(s) : 6 channels
Channel positions : Front: L C R, Side: L R, LFE
Sampling rate : 48.0 KHz
Bit depth : 24 bits
Compression mode : Lossy
Stream size : 1.23 GiB (10%)
Title : DTS 5.1 @ 1536 kbps - AVO, Ю.Сербин
Language : Russian

Audio #3
ID : 4
Format : DTS
Format/Info : Digital Theater Systems
Codec ID : A_DTS
Duration : 1h 56mn
Bit rate mode : Constant
Bit rate : 1 510 Kbps
Channel(s) : 6 channels
Channel positions : Front: L C R, Side: L R, LFE
Sampling rate : 48.0 KHz
Bit depth : 24 bits
Compression mode : Lossy
Stream size : 1.23 GiB (10%)
Title : DTS 5.1 @ 1536 kbps
Language : English

Audio #4
ID : 5
Format : AC-3
Format/Info : Audio Coding 3
Mode extension : CM (complete main)
Codec ID : A_AC3
Duration : 1h 56mn
Bit rate mode : Constant
Bit rate : 224 Kbps
Channel(s) : 2 channels
Channel positions : Front: L R
Sampling rate : 48.0 KHz
Bit depth : 16 bits
Compression mode : Lossy
Stream size : 187 MiB (2%)
Title : AC3 2.0 @ 224 kbps - Commentary
Language : English

Text #1
ID : 6
Format : UTF-8
Codec ID : S_TEXT/UTF8
Codec ID/Info : UTF-8 Plain Text
Language : Ukrainian

Text #2
ID : 7
Format : UTF-8
Codec ID : S_TEXT/UTF8
Codec ID/Info : UTF-8 Plain Text
Language : English

Menu
00:00:00.000 : en:00:00:00.000
00:04:00.865 : en:00:04:00.865
00:08:58.370 : en:00:08:58.370
00:13:26.053 : en:00:13:26.053
00:16:35.158 : en:00:16:35.158
00:21:27.286 : en:00:21:27.286
00:29:56.000 : en:00:29:56.000
00:37:50.893 : en:00:37:50.893
00:41:47.713 : en:00:41:47.713
00:47:55.289 : en:00:47:55.289
00:51:50.731 : en:00:51:50.731
00:59:29.565 : en:00:59:29.565
01:05:55.242 : en:01:05:55.242
01:13:11.386 : en:01:13:11.386
01:17:52.332 : en:01:17:52.332
01:23:12.904 : en:01:23:12.904
01:30:16.411 : en:01:30:16.411
01:34:20.529 : en:01:34:20.529
01:41:51.104 : en:01:41:51.104
01:46:45.814 : en:01:46:45.814
01:52:32.578 : en:01:52:32.578

pb.wtf



Скачать Игры дьявола через торрент http://lostpic.net/images/2330c68b0be017b6efe89cd593d42314.jpg Скачать фильм Игры дьявола через торрент бесплантно в хорошем качестве Описание: Два брата замыслили идеальное, как им кажется, преступление. В теории они должны получить огромную сумму денег, обойдясь при этом ... 5 10 1
Info! Золотая раздача, скачанное не засчитывается.
Торрент: Зарегистрирован [2012-05-14 11:27] · скачан: 22 раз
Статус: √ проверено
Размер: 11.87 GB
Как cкачать? Как скачать Игры дьявола через торрент | qTorrent

28-11-2019 20:33  

Отключить всю рекламу на сайте

14-05-2012 11:50 Игры дьявола Скачать торрент  

Спасибо!pb.wtf



14-05-2012 11:56 Игры дьявола Скачать торрент  

спасибо!pb.wtf



    Дорогой пользователь! Огромная просьба, поблагодарите релизера, оцените раздачу и оставьте свои комментарий, если Вы скачали Игры дьявола через торрент бесплатно! Внесите свою лепту в развитие PiratBit!
    Комментировать посты могут только пользователи прошедшие не сложную регистрацию
    Показать сообщения:    

    Игры дьявола через торрент
    Скачать бесплатно Игры дьявола
    Игры дьявола скачать торрент
    Игры дьявола смотреть онлайн
    Cкачать фильм Игры дьявола бесплатно
    Игры дьявола скачать торрент в хорошем качестве
    Игры дьявола смотреть онлайн бесплатно в хорошем качестве


    Вы не можете начинать темы
    Вы не можете отвечать на сообщения
    Вы не можете редактировать свои сообщения
    Вы не можете удалять свои сообщения
    Вы не можете голосовать в опросах
    Вы не можете прикреплять файлы к сообщениям
    Вы можете скачивать файлы