новый адрес пиратбит piratbit
MEGA NEWS Получи личный уникальный адрес сайта и защити себя от блокировок. Внимание количество ограничено!!!

iTunes

1+1

iTunes

мы

iTunes

1

iTunes

Чернобыль

iTunes

Ральф против интернета

Лицензия

ПШазам

Лицензия

Игра престолов

Лицензия

30
pack

ВАЖНО

!!Акция!!

Alien_RageХит недели

RePack

Resident Evil 21

ИГРА 18+

pack

RePack

Metro:Exodus

!!Акция!!

Alien_Rage

RePack

fifa19

RePack

Assassins Creed: Odyssey

RePack

NEED FOR SPEED™ PAYBACK

3 сезон

9 сезон

Бесстыжие 9 сезон

Все сериалы

все сериалы на PB.wtf

RePack

FAR CRY 5
Ребята, катастрофически не хватает 1900р. для оплаты серверов за АВГУСТ (всвязи с блокировками трафик упал в 3 раза), 1-2р., выручайте.
  

О, счастливчик! (Эдуард Парри) [2009 г., комедия, BDRip (720p) (оригинал)] pb.wtf

О, счастливчик! через торрент pb.wtf

Размер: 4.37 GB | Добавлен: 7 лет 5 мес. назад | Торрент скачан:92 раза
Скачать  

14-05-2012 12:45 О, счастливчик! Скачать торрент  

О, счастливчик!

Год выпуска: 2009
Страна: Россия
Жанр: комедия
Продолжительность: 01:35:53
Перевод: Не требуется (оригинал)

Режиссер: Эдуард Парри

В ролях: Михаил Тарабукин, Владимир Меньшов, Сергей Шакуров, Владимир Кристовский, Ольга Полякова, Вячеслав Разбегаев, Семен Фурман, Сергей Векслер, Армен Джигарханян, Алексей Панин, Андрей Мерзликин, Максим Коновалов, Виталий Хаев, Сергей Зверев, Александр Стефанцов, Игорь Куролесов, Алексей Дмитриев, Александр Ясинский, Евгений Хоменок, Дмитрий Гаврилов, Елена Лабутина

Описание: Это молодежная комедия о том, как в один прекрасный день, Славику, обычному молодому человеку показалось, что жизнь его слишком банальна, непримечательна и лишена всяческого смысла. У него нет приличной работы, образования, девушки…
Он решает умереть — прыгнуть с моста. Но неожиданно появляются два экстравагантных джентльмена: Олег Генрихович и Константин Германович, которые убеждают героя в том, что самоубийство — не выход. Ему предлагают поменять cвою биографию и начать новую благополучную жизнь. Но как только Славик избавляется от собственных проблем, тут же начинаются новые! Игра в «чужую» жизнь превращается в калейдоскоп веселых, грустных, а порой и страшных историй …

Качество: BDRip (720p)
Формат: MKV
Видео кодек: AVC
Аудио кодек: AC3
Видео: 1280x544, 23.976 fps, x264, ~5881 Kbps avg
Аудио: 48 kHz, AC3, 3/2 (L,C,R,l,r) + LFE ch, ~640.00 kbps avg
Субтитры: русские

Общее
Уникальный идентификатор : 227349798465437798484718403400226418122 (0xAB09FA7D1BB03ABBAF5EEAD540BDADCA)
Формат : Matroska
Версия формата : Version 2
Размер файла : 4,37 Гбайт
Продолжительность : 1 ч. 35 м.
Общий поток : 6518 Кбит/сек
Дата кодирования : UTC 2010-05-01 09:53:34
Программа кодирования : mkvmerge v3.3.0 ('Language') built on Mar 24 2010 14:59:24
Библиотека кодирования : libebml v0.8.0 + libmatroska v0.9.0

Видео
Идентификатор : 1
Формат : AVC
Формат/Информация : Advanced Video Codec
Профиль формата : High@L4.1
Параметр CABAC формата : Да
Параметр ReFrames формата : 7 кадров
Идентификатор кодека : V_MPEG4/ISO/AVC
Продолжительность : 1 ч. 35 м.
Битрейт : 5881 Кбит/сек
Ширина : 1280 пикс.
Высота : 544 пикс.
Соотношение сторон : 2,35:1
Частота кадров : 24,000 кадр/сек
Цветовое пространство : YUV
Подвыборка цветности : 4:2:0
Битовая глубина : 8 бит
Тип развёртки : Прогрессивная
Бит/(Пиксели*Кадры) : 0.352
Размер потока : 3,85 Гбайт (88%)
Заголовок : Release for HDCLUB
Библиотека кодирования : x264 core 94 r1564 a927654
Настройки программы : cabac=1 / ref=8 / deblock=1:-3:-3 / analyse=0x3:0x133 / me=umh / subme=9 / psy=1 / psy_rd=1.00:0.00 / mixed_ref=1 / me_range=32 / chroma_me=1 / trellis=2 / 8x8dct=1 / cqm=0 / deadzone=21,11 / fast_pskip=0 / chroma_qp_offset=-2 / threads=12 / sliced_threads=0 / nr=0 / decimate=1 / interlaced=0 / constrained_intra=0 / bframes=8 / b_pyramid=1 / b_adapt=2 / b_bias=0 / direct=3 / wpredb=1 / wpredp=2 / keyint=250 / keyint_min=25 / scenecut=40 / intra_refresh=0 / rc_lookahead=0 / rc=2pass / mbtree=0 / bitrate=5881 / ratetol=1.0 / qcomp=0.60 / qpmin=10 / qpmax=51 / qpstep=4 / cplxblur=20.0 / qblur=0.5 / vbv_maxrate=50000 / vbv_bufsize=62500 / ip_ratio=1.40 / pb_ratio=1.30 / aq=1:0.80 / nal_hrd=none
Язык : English

Аудио
Идентификатор : 2
Формат : AC-3
Формат/Информация : Audio Coding 3
Расширение режима : CM (complete main)
Идентификатор кодека : A_AC3
Продолжительность : 1 ч. 35 м.
Вид битрейта : Постоянный
Битрейт : 640 Кбит/сек
Каналы : 6 каналов
Расположение каналов : Front: L C R, Side: L R, LFE
Частота : 48,0 КГц
Битовая глубина : 16 бит
Метод сжатия : С потерями
Размер потока : 439 Мбайт (10%)
Заголовок : AC3 5.1 @ 640 kbps
Язык : Russian

Текст
Идентификатор : 3
Формат : UTF-8
Идентификатор кодека : S_TEXT/UTF8
Идентификатор кодека/Информация : UTF-8 Plain Text
Язык : Russian
pb.wtf



Скачать О, счастливчик! через торрент http://i6.fastpic.ru/big/2010/0429/ab/5b1f9247aa0fa58df1b1640e62d537ab.jpg Скачать фильм О, счастливчик! через торрент бесплантно в хорошем качестве Описание: Это молодежная комедия о том, как в один прекрасный день, Славику, обычному молодому человеку показалось, что жизнь его слишком ... 10 10 1
Info! Золотая раздача, скачанное не засчитывается.
Торрент: Зарегистрирован [2012-05-14 12:45] · скачан: 92 раз
Статус: √ проверено
Размер: 4.37 GB
Как cкачать? Как скачать О, счастливчик! через торрент | qTorrent

% Раздел Тема Автор DL S | L
Иностранные мультфильмы [ 1.46 GB ] Счастливчик Люк: Баллада о Долтонах / Lucky Luke: La ballade des Dalton [1978 мультфильм BDRip AVO] Russian Mafia Скачать
1 | 0
Наши фильмы, до 2010 [ 1.46 GB ] О счастливчик! [2009 BDRip] Andruuha Скачать
1 | 0
Наши фильмы, до 2010 [ 1.37 GB ] О счастливчик!  [2009 DVDRip] DEVI Скачать
1 | 0


>> Регистрируемся здесь <<






Отзывы и комментарии о схеме читаем и пишем здесь: ---> Отзывы и комментарии о схеме

Новые благодарочки в телеграм довольных пользователей:
скриншот   скриншот   скриншот   скриншот   скриншот
    Дорогой пользователь! Огромная просьба, поблагодарите релизера, оцените раздачу и оставьте свои комментарий, если Вы скачали О, счастливчик! через торрент бесплатно! Внесите свою лепту в развитие PiratBit!
    Комментировать посты могут только пользователи прошедшие не сложную регистрацию
    Показать сообщения:    

    О, счастливчик! через торрент
    Скачать бесплатно О, счастливчик!
    О, счастливчик! скачать торрент
    О, счастливчик! смотреть онлайн
    Cкачать фильм О, счастливчик! бесплатно
    О, счастливчик! скачать торрент в хорошем качестве
    О, счастливчик! смотреть онлайн бесплатно в хорошем качестве


    Вы не можете начинать темы
    Вы не можете отвечать на сообщения
    Вы не можете редактировать свои сообщения
    Вы не можете удалять свои сообщения
    Вы не можете голосовать в опросах
    Вы не можете прикреплять файлы к сообщениям
    Вы можете скачивать файлы