1 сезон

1 сезон

iTunes

1

КиноПоиск HD

Кинопоиск HD

iTunes

13

1 сезон

RePack

30

Новинка

ВАЖНО

ИГРА 18+

pack

RePack

MK11
pack

Легкие деньги

RePack

jed

RePack

fifa19

RePack

RDR2

RePack

NEED FOR SPEED™ PAYBACK

4 сезон

9 сезон

Бесстыжие 9 сезон

Все сериалы

все сериалы на PB.wtf

RePack

FAR CRY 5
  
Magnet ссылка

Перл Харбор / Pearl Harbor (Майкл Бэй / Michael Bay) [2001 г., Боевик, мелодрама, военный, HDRip] DUB pb.wtf

Перл Харбор через торрент pb.wtf

Размер: 1.1 GB | Добавлен: 8 лет 11 мес. назад | Торрент скачан:65 раз
Скачать  

14-05-2012 18:47 Перл Харбор Скачать торрент  

Перл Харбор / Pearl Harbor

Год выпуска: 2001
Страна: США
Жанр: Боевик, мелодрама, военный
Продолжительность: 03:03:09
Перевод:Профессиональный (полное дублирование)
Субтитры: Нет

Режиссер: Майкл Бэй / Michael Bay

В ролях: Бен Аффлек, Джош Хартнетт, Кейт Бэкинсейл, Куба Гудинг мл., Алек Болдуин, Дженнифер Гарнер, Уильям Фихтнер, Джон Войт, Том Сайзмор, Уильям Ли Скотт, Джэми Кинг, Дэн Эйкройд, Грег Зола, Ивен Бремнер и другие.

Описание: История двух друзей, отважных, отчаянных летчиков. Незадолго до вступления Соединенных Штатов во Вторую Мировую войну становятся офицерами американских ВВС два закадычных друга – Рэйф Маккоули и Дэнни Уолкер. Однако тут же судьбы парней, практически с пеленок мечтавших о высоком небе, расходятся. Более отчаянный Рэйф отправляется в Британию, где в составе эскадрильи «Орлы» вступает в реальную битву с нацистской Германией. Дэнни поступает более традиционно: он отправляется по месту распределения, на военную базу в Перл Харбор, Гавайские острова. Там же оказывается и лейтенант медслужбы Эвелин Стюарт. Вся соль ситуации в том, что она является невестой Рэйфа. Улетая в Британию, ее избранник поручил Эвелин заботам своего лучшего друга Дэнни. Так они и живут вдвоем, в мире и дружбе, пока не приходит известие о смерти Рэйфа. Можно понять горе несчастной Эвелин и можно оправдать Дэнни, слишком усердно пытавшегося ее утешить. Все это происходит на фоне надвигающейся войны: в параллельных мирах японский генералитет разрабатывает планы нападения на американский Тихоокеанский флот...

Сэмпл: http://multi-up.com/702524

Качество: HDRip (исходник BDRip 1080p)
Формат: AVI
Видео кодек: XviD
Аудио кодек: МР3
Видео: 720x304 (2.37:1), 23.976 fps, XviD build 50 ~719 kbps avg, 0.14 bit/pixel
Аудио: 48 kHz, MPEG Layer 3, 2 ch, ~128.00 kbps avg
Общее
Полное имя : D:\Рип\Pearl_Harbor_1.9.avi
Формат : AVI
Формат/Информация : Audio Video Interleave
Размер файла : 1,10 Гбайт
Продолжительность : 3 ч. 3 м.
Общий поток : 857 Кбит/сек
Программа кодирования : VirtualDubMod 1.5.10.3 | www.virtualdub-fr.org || (build 2550/release)
Библиотека кодирования : VirtualDubMod build 2550/release

Видео
Идентификатор : 0
Формат : MPEG-4 Visual
Профиль формата : Advanced Simple@L5
Параметр BVOP формата : 1
Параметр QPel формата : Нет
Параметр GMC формата : Без точки перехода
Параметр матрицы формата : Default (H.263)
Идентификатор кодека : XVID
Идентификатор кодека/Подсказка : XviD
Продолжительность : 3 ч. 3 м.
Битрейт : 720 Кбит/сек
Ширина : 720 пикселей
Высота : 304 пикселя
Соотношение сторон : 2,35:1
Частота кадров : 23,976 кадра/сек
Цветовое пространство : YUV
Субдискретизация насыщенности : 4:2:0
Битовая глубина : 8 бит
Тип развёртки : Прогрессивная
Метод сжатия : С потерями
Бит/(Пиксели*Кадры) : 0.137
Размер потока : 943 Мбайт (84%)
Библиотека кодирования : XviD 1.2.1 (UTC 2008-12-04)

Аудио
Идентификатор : 1
Формат : MPEG Audio
Версия формата : Version 1
Профиль формата : Layer 3
Идентификатор кодека : 55
Идентификатор кодека/Подсказка : MP3
Продолжительность : 3 ч. 3 м.
Вид битрейта : Постоянный
Битрейт : 128 Кбит/сек
Каналы : 2 канала
Частота : 48,0 КГц
Метод сжатия : С потерями
Размер потока : 168 Мбайт (15%)
Выравнивание : Соединение по промежуткам
Продолжительность промежутка : 42 мс. (1,00 видеокадр)
Время предзагрузки промежутка : 504 мс.
Библиотека кодирования : LAME3.98r
Настройки программы : -m s -V 4 -q 2 -lowpass 17 -b 128
pb.wtf



Скачать Перл Харбор через торрент http://i38.fastpic.ru/big/2012/0514/c9/491df52d9b678b9a3f8b9f55894314c9.jpg Скачать фильм Перл Харбор через торрент бесплантно в хорошем качестве Описание: История двух друзей, отважных, отчаянных летчиков. Незадолго до вступления Соединенных Штатов во Вторую Мировую войну становятся ... 10 10 1
Info! Золотая раздача, скачанное не засчитывается.
Торрент: Зарегистрирован [2012-05-14 18:47] · скачан: 65 раз
Статус: √ проверено
Размер: 1.1 GB
Как cкачать? Как скачать Перл Харбор через торрент | UTorrent

% Раздел Тема Автор DL S | L
Фильмы (Blu-ray, BD-Remux, HDDVD) [ 42.65 GB ] Перл-Харбор / Pearl Harbor [2001 BDRemux 1080p] DUB + 2xMVO + 2xAVO sheker187 Скачать
1 | 0
Фильмы (BDRip, HDrip-AVC) (48-60 fps) [ 3.95 GB ] Перл-Харбор / Pearl Harbor [2001 BDRip-AVC 60fps Experimental Dub] от R.G. HD-Films Tiberiumsun69 Скачать
15 | 0
Фильмы [HD 720p, 1080p] (Хороший звук DUB, MVO) [ 12.99 GB ] Перл-Харбор / Pearl Harbor [2001 BDRip 720p от _denis_100 / NNNB] DUB 2xMVO 2xAVO _denis_100 Скачать
1 | 0
Фильмы (HD 720p, 1080p) (48-60 fps) [ 12.08 GB ] Перл Харбор / Pearl Harbor [2001 военный BDRip] [720p] [60 fps] + 2x[MVO] + 2x[AVO] killermax2013 Скачать
1 | 0
Фильмы [HD 720p, 1080p] (Хороший звук DUB, MVO) [ 10.05 GB ] Перл Харбор / Pearl Harbor [2001 BDRip 720p DUB] AlexKa Скачать
1 | 0

28-11-2019 20:33  

Отключить всю рекламу на сайте

14-05-2012 20:25 Перл Харбор Скачать торрент  

Размер какой-то печальный для HD-рипа... да еще на три часа длиной.pb.wtf



    Дорогой пользователь! Огромная просьба, поблагодарите релизера, оцените раздачу и оставьте свои комментарий, если Вы скачали Перл Харбор через торрент бесплатно! Внесите свою лепту в развитие PiratBit!
    Комментировать посты могут только пользователи прошедшие не сложную регистрацию
    Показать сообщения:    

    Перл Харбор через торрент
    Скачать бесплатно Перл Харбор
    Перл Харбор скачать торрент
    Перл Харбор смотреть онлайн
    Cкачать фильм Перл Харбор бесплатно
    Перл Харбор скачать торрент в хорошем качестве
    Перл Харбор смотреть онлайн бесплатно в хорошем качестве


    Вы не можете начинать темы
    Вы не можете отвечать на сообщения
    Вы не можете редактировать свои сообщения
    Вы не можете удалять свои сообщения
    Вы не можете голосовать в опросах
    Вы не можете прикреплять файлы к сообщениям
    Вы можете скачивать файлы