1 сезон

3 сезон

iTunes

1

iTunes

MVO

iTunes

13

1 сезон

RePack

30

Deluxe

pack

Лицензия

ВАЖНО

ИГРА 18+

pack

RePack

MK11

RePack

jed

RePack

fifa19

RePack

RDR2

RePack

NEED FOR SPEED™ PAYBACK

4 сезон

9 сезон

Бесстыжие 9 сезон

Все сериалы

все сериалы на PB.wtf

RePack

FAR CRY 5

Anonymous, добрый вечер, мы катастрофически не успеваем собрать деньги на оплату серверов, помогите нам пожалуйста 5,10,15р., для нас важна любая помощь . В качестве благодарности мы отключим Вам всю рекламу на сайте (укажите свой ник в строку Ваше имя)!

×
  
Magnet ссылка

Разделитель / The Divide (Ксавьер Генс) [2011 г., ужасы, фантастика, триллер, DVD9, Профессиональный (многоголосый) (лицензия)] pb.wtf

Разделитель через торрент pb.wtf

Размер: 5.92 GB | Добавлен: 9 лет 2 мес. назад | Торрент скачан:75 раз
Скачать  

15-05-2012 00:05 Разделитель Скачать торрент  

Разделитель / The Divide

Год выпуска: 2011
Страна: США, Германия, Канада
Жанр: ужасы, фантастика, триллер
Продолжительность: 122 мин. / 02:02
Перевод: Профессиональный (многоголосый) (Лицензия)

Режиссер: Ксавьер Генс
Продюссер: Натаниель Ролло, Даррин Уэлш, Росс М. Динерштейн, ...
Сценарий: Карл Мюллер, Eron Sheean



В ролях: Лорен Джерман, Майло Вентимилья, Майкл Бьен, Майкл Эклунд, Розанна Аркетт, Кортни Б. Вэнс, Иван Гонзалез, Эштон Холмс, Дженнифер Бланк, Abbey Thickson.

Описание: События фильма разворачиваются в подвале одного из зданий в Нью-Йорке, который стал своего рода спасательным бункером для восьмерых людей, когда город был разрушен в результате мощного взрыва неизвестного происхождения. Где-то в глубине подвала они видят человека в ОЗК и с оружием, который, похоже, объявил на них охоту.

Качество: DVD9
Формат: DVD Video
Видео кодек: MPEG Video
Аудио кодек: AC3
Видео: PAL 16:9 (720x576) VBR, 25 fps, 6131 kbps
Аудио: 48 kHz, AC3, 6 ch, 448 Russian / English
General
Complete name : C:\Documents and Settings\Admin.MICROSOF-BAE537\Мои документы\Фильмы\Razdelitel.2011.P.DVD9\VIDEO_TS\VTS_05_5.VOB
Format : MPEG-PS
File size : 1 024 MiB
Duration : 20mn 21s
Overall bit rate mode : Variable
Overall bit rate : 7 031 Kbps

Video
ID : 224 (0xE0)
Format : MPEG Video
Format version : Version 2
Format profile : Main@Main
Format settings, BVOP : Yes
Format settings, Matrix : Custom
Format settings, GOP : M=3, N=15
Duration : 20mn 21s
Bit rate mode : Variable
Bit rate : 5 995 Kbps
Maximum bit rate : 8 000 Kbps
Width : 720 pixels
Height : 576 pixels
Display aspect ratio : 4:3
Frame rate : 25.000 fps
Standard : PAL
Color space : YUV
Chroma subsampling : 4:2:0
Bit depth : 8 bits
Scan type : Interlaced
Scan order : Bottom Field First
Compression mode : Lossy
Bits/(Pixel*Frame) : 0.578
Stream size : 873 MiB (85%)

Audio #1
ID : 189 (0xBD)-128 (0x80)
Format : AC-3
Format/Info : Audio Coding 3
Mode extension : CM (complete main)
Muxing mode : DVD-Video
Duration : 20mn 21s
Bit rate mode : Constant
Bit rate : 448 Kbps
Channel(s) : 6 channels
Channel positions : Front: L C R, Side: L R, LFE
Sampling rate : 48.0 KHz
Bit depth : 16 bits
Compression mode : Lossy
Delay relative to video : -800ms
Stream size : 65.3 MiB (6%)

Audio #2
ID : 189 (0xBD)-129 (0x81)
Format : AC-3
Format/Info : Audio Coding 3
Mode extension : CM (complete main)
Muxing mode : DVD-Video
Duration : 20mn 21s
Bit rate mode : Constant
Bit rate : 448 Kbps
Channel(s) : 6 channels
Channel positions : Front: L C R, Side: L R, LFE
Sampling rate : 48.0 KHz
Bit depth : 16 bits
Compression mode : Lossy
Delay relative to video : -800ms
Stream size : 65.3 MiB (6%)

Text
ID : 189 (0xBD)-32 (0x20)
Format : RLE
Format/Info : Run-length encoding
Muxing mode : DVD-Video
Delay relative to video : 2s 480ms

Menu

pb.wtf



Скачать Разделитель через торрент https://pic1.kartinco.top/images/2000/idpgozj8nf.jpg Скачать фильм Разделитель через торрент бесплантно в хорошем качестве Описание: События фильма разворачиваются в подвале одного из зданий в Нью-Йорке, который стал своего рода спасательным бункером для ... 10 10 1
Info! Золотая раздача, скачанное не засчитывается.
Торрент: Зарегистрирован [2012-05-15 00:05] · скачан: 75 раз
Статус: √ проверено
Размер: 5.92 GB
Как cкачать? Как скачать Разделитель через торрент | UTorrent

% Раздел Тема Автор DL S | L
Фильмы 2011 [ 1.36 GB ] Разделитель / The Divide [2011 HDRip ] snouman82 Скачать
1 | 0
Фильмы 2011 [ 2.06 GB ] Разделитель / The Divide [2011 HDRip +Оригинал] ~Relizer~ Скачать
1 | 0
Фильмы [HD 720p, 1080p] (Хороший звук DUB, MVO) [ 7.65 GB ] Разделитель / The Divide [2011 Германия BDRip 720p от Leonardo] MVO Ворон Скачать
1 | 0
Фильмы (HD 720p, 1080p) (48-60 fps) [ 13.05 GB ] Разделитель / The Divide [2011 Германия BDRip 1080p / 60 FPS многоголосый] Tiberiumsun69 Скачать
1 | 0

28-11-2019 20:33  

Отключить всю рекламу на сайте

15-05-2012 07:05 Разделитель Скачать торрент  

спасибо!pb.wtf



15-05-2012 10:38 Разделитель Скачать торрент  

кто смотрел? как фильм?pb.wtf



15-05-2012 11:39 Разделитель Скачать торрент  

ничего особенного не увидел. порезали покрамсали друг друга. как обычно всем трындец, вижил один, для чего не понятноpb.wtf



13-07-2015 14:53 Разделитель Скачать торрент  

Фильм классный,давно что то подобное искал.pb.wtf



    Дорогой пользователь! Огромная просьба, поблагодарите релизера, оцените раздачу и оставьте свои комментарий, если Вы скачали Разделитель через торрент бесплатно! Внесите свою лепту в развитие PiratBit!
    Комментировать посты могут только пользователи прошедшие не сложную регистрацию
    Показать сообщения:    

    Разделитель через торрент
    Скачать бесплатно Разделитель
    Разделитель скачать торрент
    Разделитель смотреть онлайн
    Cкачать фильм Разделитель бесплатно
    Разделитель скачать торрент в хорошем качестве
    Разделитель смотреть онлайн бесплатно в хорошем качестве


    Вы не можете начинать темы
    Вы не можете отвечать на сообщения
    Вы не можете редактировать свои сообщения
    Вы не можете удалять свои сообщения
    Вы не можете голосовать в опросах
    Вы не можете прикреплять файлы к сообщениям
    Вы можете скачивать файлы