Присоединяйтесь к нам в Telegram!, здесь всегда актуальный адрес сайта, оперативная поддержка и многое другое!!

>

5.9

iTunes

7.4

iTunes

9.4

1 сезон

1

7.4

2 сезон

7.2

iTunes

7.3

1 сезон

13

6.1

iTunes

8.3

GOG

30

ULTIMATE

pack

9.9

Лицензия

ВАЖНО

ИГРА 18+

pack

7.3

RePack

MK11

7.7

RePack

jed

7.8

RePack

fifa19

8.5

RePack

RDR2

RePack

NEED FOR SPEED™ PAYBACK

5 сезон

9 сезон

Бесстыжие 9 сезон

Все сериалы

все сериалы на PB.wtf

RePack

FAR CRY 5

Anonymous, добрый день, мы катастрофически не успеваем собрать деньги на оплату серверов, помогите нам пожалуйста 5,10,15р., для нас важна любая помощь . В качестве благодарности мы отключим Вам всю рекламу на сайте (укажите свой ник в строку Ваше имя)!

×
  
Magnet ссылка

Skrillex / Skrillex [2011 г., DUBstep, Brostep, BDRip (1080p)] pb.wtf

Skrillex через торрент pb.wtf

Размер: 172 MB | Добавлен: 9 лет 6 мес. назад | Торрент скачан:291 раз
Смотреть онлайн Skrillex | Скачать    Ребята, помогите собрать деньги на оплату серверов!!!

15-05-2012 18:25 Skrillex Скачать торрент  

Skrillex - Видеография




Год выпуска: 2011

Страна: USA

Жанр: Dubstep (Brostep)

Режиссёр: Tony Truand

Продюсер: HK corp

Перевод: Оригинал

Продолжительность: 3 клипа по ~3:30

Описание: 3 клипа на треки: First Of The Year (Equinox), Bangarang, Ruffneck - FULL Flex.




Качество: BDRip (1080p)

Видео кодек: MPEG4

Аудио кодек: Advanced Video Codec

Видео: 1920х1080, 23fps, MPEG-4, ~2500kbps

Аудио: 44 kHz, 2 ch, ~150 kbps




General

Format : MPEG-4
Format profile : Base Media / Version 2
Codec ID : mp42
File size : 63.9 MiB
Duration : 3mn 34s
Overall bit rate mode : Variable
Overall bit rate : 2 500 Kbps
Encoded date : UTC 2011-12-22 19:11:09
Tagged date : UTC 2011-12-22 19:11:09
gsst : 0
gstd : 214598
gssd : B4A7D0801HH1337105253942825
gshh : o-o.preferred.ams04s07.v16.lscache4.c.youtube.com
Video #1
ID : 1
Format : AVC
Format/Info : Advanced Video Codec
Format profile : High@L4.0
Format settings, CABAC : Yes
Format settings, ReFrames : 1 frame
Codec ID : avc1
Codec ID/Info : Advanced Video Coding
Duration : 3mn 34s
Bit rate : 2 346 Kbps
Maximum bit rate : 6 521 Kbps
Width : 1 920 pixels
Height : 1 080 pixels
Display aspect ratio : 16:9
Frame rate mode : Constant
Frame rate : 23.976 fps
Color space : YUV
Chroma subsampling : 4:2:0
Bit depth : 8 bits
Scan type : Progressive
Bits/(Pixel*Frame) : 0.047
Stream size : 60.0 MiB (94%)
Tagged date : UTC 2011-12-22 19:11:09
Audio #2
ID : 2
Format : AAC
Format/Info : Advanced Audio Codec
Format profile : LC
Codec ID : 40
Duration : 3mn 34s
Bit rate mode : Variable
Bit rate : 151 Kbps
Maximum bit rate : 169 Kbps
Channel(s) : 2 channels
Channel positions : Front: L R
Sampling rate : 44.1 KHz
Compression mode : Lossy
Stream size : 3.86 MiB (6%)
Title : IsoMedia File Produced by Google, 5-11-2011
Encoded date : UTC 2011-12-22 19:11:09
Tagged date : UTC 2011-12-22 19:11:09
pb.wtf



Скачать Skrillex через торрент http://img-fotki.yandex.ru/get/6002/vinilgod.39/0_42046_d7116c2a_L.jpg Скачать, смотреть онлайн Skrillex бесплантно в хорошем качестве Описание: 3 клипа на треки: First Of The Year (Equinox), Bangarang, Ruffneck - FULL ... 10 10 1
Info! Золотая раздача, скачанное не засчитывается.
Торрент: Зарегистрирован [2012-05-15 18:25] · скачан: 291 раз
Статус: √ проверено
Размер: 172 MB
Как cкачать? Как скачать Skrillex через торрент | UTorrent

% Раздел Тема Автор DL S | L
Электронная музыка lossless [ 3.73 GB ] Skrillex - Discography 2010-2016 / FLAC / Breakcore Dub Step Electro Quatron Скачать
1 | 0
Breakbeat, Dubstep (mp3) [ 967 MB ] Skrillex - Дискография 2009 - 2013 / MP3 / 320 kbps / Drum DUBstep Breakbeat Electro house Deadshit Скачать
1 | 0
Breakbeat, Dubstep (mp3) [ 108 MB ] Skrillex - Recess 2014 / MP3 / 320 kbps / dubstep Mataxe Скачать
1 | 0
Порно фильмы с сюжетом [ 1.03 GB ] Кощунство и Пороки Кардинала / Sacrilegus i Vizi del Cardinale ) [2007 Feature Anal Oral Threesome European All Sex DVDRip Оригинал] sheker187 Скачать
1 | 0
Breakbeat, Dubstep (mp3) [ 30 MB ] Skrillex / Leaving 2013 / MP3 / 320 kbps / Dubstep Electro harpoon Скачать
1 | 0
Breakbeat, Dubstep (mp3) [ 359 MB ] Skrillex-Best of all time 2012 / MP3 / 256 kbps / DUBstep megatoxa Скачать
1 | 0
Breakbeat, Dubstep (mp3) [ 66 MB ] Skrillex & Damian Marley - After Hours 2012 / MP3 / 320 kbps / DUBstep megatoxa Скачать
1 | 0


Последний раз редактировалось: AR666 (2012-05-16 04:09), всего редактировалось 24 раз(а)

28-11-2019 20:33  

Отключить всю рекламу на сайте

15-05-2012 18:30 Skrillex Скачать торрент  

Супер оформление!pb.wtf



15-05-2012 18:31 Skrillex Скачать торрент  

первая раздача. только пробую.pb.wtf



15-05-2012 18:55 Skrillex Скачать торрент  

Исправь оформление, а то удалят раздачу за такую "красоту".pb.wtf



15-05-2012 19:01 Skrillex Скачать торрент  

Yulikk писал(а):

Исправь оформление, а то удалят раздачу за такую "красоту".

подскажите что исправить? что добавить?pb.wtf



15-05-2012 19:42 Skrillex Скачать торрент  

AR666
Перевод? Качество? Видео кодек? Аудио кодек?pb.wtf



15-05-2012 19:44 Skrillex Скачать торрент  

верните ссылкуpb.wtf



15-05-2012 19:51 Skrillex Скачать торрент  

-=Cherry=- писал(а):

AR666
Перевод? Качество? Видео кодек? Аудио кодек?

добавилpb.wtf



    Дорогой пользователь! Огромная просьба, поблагодарите релизера, оцените раздачу и оставьте свои комментарий, если Вы скачали Skrillex через торрент бесплатно!
    Комментировать посты могут только пользователи прошедшие не сложную регистрацию
    Показать сообщения:    

    Skrillex через торрент
    Скачать бесплатно Skrillex
    Skrillex скачать торрент
    Skrillex смотреть онлайн
    Cкачать фильм Skrillex бесплатно
    Skrillex скачать торрент в хорошем качестве
    Skrillex смотреть онлайн бесплатно в хорошем качестве


    Вы не можете начинать темы
    Вы не можете отвечать на сообщения
    Вы не можете редактировать свои сообщения
    Вы не можете удалять свои сообщения
    Вы не можете голосовать в опросах
    Вы не можете прикреплять файлы к сообщениям
    Вы можете скачивать файлы