1 сезон

3 сезон

iTunes

1

iTunes

MVO

iTunes

13

1 сезон

RePack

30

Deluxe

pack

Лицензия

ВАЖНО

ИГРА 18+

pack

RePack

MK11

RePack

jed

RePack

fifa19

RePack

RDR2

RePack

NEED FOR SPEED™ PAYBACK

4 сезон

9 сезон

Бесстыжие 9 сезон

Все сериалы

все сериалы на PB.wtf

RePack

FAR CRY 5

Anonymous, добрый день, мы катастрофически не успеваем собрать деньги на оплату серверов, помогите нам пожалуйста 5,10,15р., для нас важна любая помощь . В качестве благодарности мы отключим Вам всю рекламу на сайте (укажите свой ник в строку Ваше имя)!

×
  
Magnet ссылка

Тайна прошлого / Secrets from Her Past (Гордон Янг) [2011 г., триллер, DVD5, Профессиональный (многоголосый) (лицензия)] pb.wtf

Тайна прошлого через торрент pb.wtf

Размер: 4.3 GB | Добавлен: 9 лет 2 мес. назад | Торрент скачан:30 раз
Скачать  

16-05-2012 18:03 Тайна прошлого Скачать торрент  

Тайна прошлого / Secrets from Her Past

Год выпуска: 2011
Страна: Канада
Жанр: триллер
Продолжительность: 01:27:06
Перевод: Профессиональный (многоголосый) (Лицензия)
  • Режиссер: Гордон Янг
  • Продюссер: Кертис Кроуфорд, Стефан Водославски, Жози Бернард
  • Сценарий: Кристин Конрадт, Данис Ли

  • Премьера в мире: 20 сентября 2011

В ролях: Эшли Джонс, Эл Сапьенза, Майкл Вудс, Николь де Бур, Антонио Сабато мл., Mohi Awal, Лайн Бутэн, Синтия Бурк, Рейчел Кассиус, Ален Ченоин

Описание: Стефани живет размеренной и спокойной жизнью. У неё скучный муж, раздражающий её сын, ну в общем ничего необычного. Но однажды появляется человек, который требует с неё 200 тысяч долларов, иначе он убьёт её мужа и сына, а потом и её саму. А всё дело в тайне 10-летней давности, когда жила она совсем в другом городе, да и звали её по-другому...
  • Качество: DVD5
  • Формат: DVD-Video
  • Видео кодек: MPEG 2
  • Аудио кодек: AC3
  • Видео: MPEG 2, 720x576 (16:9), 25.000 fps, 5598 Kbps (0.540 bit/pixel)
  • Аудио#1: AC-3, 48.0 KHz, 6 ch, 384 Kbps, CBR (Russian)
  • Аудио#2: AC-3, 48.0 KHz, 6 ch, 384 Kbps, CBR (English)
  • Субтитры: Русские
  • Дополнительно: Анонсы, трейлер

Скриншоты меню
скриншот  скриншот  скриншот  
скриншот  скриншот  скриншот  

Скриншоты
скриншот  скриншот  скриншот  скриншот  

Код:

Title: Secrets.from.Her.Past.2011.P.DVD.IRONCLUB
Size: 4.30 Gb ( 4 512 868,00 KBytes ) - DVD-5
Enabled regions: 1, 2, 3, 4, 5, 6, 7, 8

VTS_01 :
  Play Length: 00:00:23
  Video: PAL 4:3 (720x576) VBR

VTS_02 :
  Play Length: 00:01:48
  Video: PAL 16:9 (720x576) VBR, Auto Letterboxed
  Audio:
      Russian (Dolby AC3, 2 ch)
      English (Dolby AC3, 2 ch)

VTS_03 :
  Play Length: 00:01:47
  Video: PAL 16:9 (720x576) VBR, Auto Letterboxed
  Audio:
      Russian (Dolby AC3, 2 ch)
      English (Dolby AC3, 2 ch)

VTS_04 :
  Play Length: 00:02:16
  Video: PAL 16:9 (720x576) VBR, Auto Letterboxed
  Audio:
      Russian (Dolby AC3, 2 ch)
      English (Dolby AC3, 2 ch)

VTS_05 :
  Play Length: 00:02:00
  Video: PAL 16:9 (720x576) VBR, Auto Letterboxed
  Audio:
      Russian (Dolby AC3, 2 ch)
      English (Dolby AC3, 2 ch)

VTS_06 :
  Play Length: 01:27:06
  Video: PAL 16:9 (720x576) VBR, Auto Letterboxed
  Audio:
      Russian (Dolby AC3, 6 ch)
      English (Dolby AC3, 6 ch)
  Subtitles:
      Russian

* Menus Information *

VIDEO_TS Menu
Video:
      PAL 16:9 (720x576) VBR
      Auto Pan&Scan, Auto Letterboxed
English Language Unit :
      Title Menu

VTS_01 Menu
Video:
      PAL 16:9 (720x576) VBR
      Auto Letterboxed
Audio:
      Not specified (Dolby AC3, 2 ch)
English Language Unit :
      Root Menu

VTS_02 Menu
Video:
      PAL 4:3 (720x576) VBR
English Language Unit :
      Root Menu

VTS_03 Menu
Video:
      PAL 4:3 (720x576) VBR
English Language Unit :
      Root Menu

VTS_04 Menu
Video:
      PAL 4:3 (720x576) VBR
English Language Unit :
      Root Menu

VTS_05 Menu
Video:
      PAL 4:3 (720x576) VBR
English Language Unit :
      Root Menu

VTS_06 Menu
Video:
      PAL 4:3 (720x576) VBR
English Language Unit :
      Root Menu


Код:

Общее
Полное имя                               : E:\Secrets.from.Her.Past.2011.P.DVD.IRONCLUB\VIDEO_TS\VTS_06_1.VOB
Формат                                   : MPEG-PS
Размер файла                             : 1024 Мбайт
Продолжительность                        : 22 м.
Режим общего битрейта                    : Переменный
Общий поток                              : 6496 Кбит/сек

Видео
Идентификатор                            : 224 (0xE0)
Формат                                   : MPEG Video
Версия формата                           : Version 2
Профиль формата                          : Main@Main
Параметр BVOP формата                    : Да
Параметр матрицы формата                 : Выборочная
Продолжительность                        : 22 м.
Вид битрейта                             : Переменный
Битрейт                                  : 5598 Кбит/сек
Максимальный битрейт                     : 9800 Кбит/сек
Ширина                                   : 720 пикселей
Высота                                   : 576 пикселей
Соотношение сторон                       : 16:9
Частота кадров                           : 25,000 кадров/сек
Стандарт вещания                         : PAL
Цветовое пространство                    : YUV
Субдискретизация насыщенности            : 4:2:0
Битовая глубина                          : 8 бит
Тип развёртки                            : Чересстрочная
Порядок развёртки                        : Верхнее поле первое
Метод сжатия                             : С потерями
Бит/(Пиксели*Кадры)                      : 0.540
Размер потока                            : 883 Мбайт (86%)

Аудио #1
Идентификатор                            : 189 (0xBD)-128 (0x80)
Формат                                   : AC-3
Формат/Информация                        : Audio Coding 3
Расширение режима                        : CM (complete main)
Параметр Endianness формата              : Big
Режим смешивания                         : DVD-Video
Продолжительность                        : 22 м.
Вид битрейта                             : Постоянный
Битрейт                                  : 384 Кбит/сек
Каналы                                   : 6 каналов
Расположение каналов                     : Front: L C R, Side: L R, LFE
Частота                                  : 48,0 КГц
Битовая глубина                          : 16 бит
Метод сжатия                             : С потерями
Размер потока                            : 60,5 Мбайт (6%)

Аудио #2
Идентификатор                            : 189 (0xBD)-129 (0x81)
Формат                                   : AC-3
Формат/Информация                        : Audio Coding 3
Расширение режима                        : CM (complete main)
Параметр Endianness формата              : Big
Режим смешивания                         : DVD-Video
Продолжительность                        : 22 м.
Вид битрейта                             : Постоянный
Битрейт                                  : 384 Кбит/сек
Каналы                                   : 6 каналов
Расположение каналов                     : Front: L C R, Side: L R, LFE
Частота                                  : 48,0 КГц
Битовая глубина                          : 16 бит
Метод сжатия                             : С потерями
Размер потока                            : 60,5 Мбайт (6%)

Текст
Идентификатор                            : 189 (0xBD)-32 (0x20)
Формат                                   : RLE
Формат/Информация                        : Run-length encoding
Режим смешивания                         : DVD-Video

Меню

pb.wtf



Скачать Тайна прошлого через торрент https://pic1.kartinco.top/images/2000/sfb4qg16ke.png Скачать фильм Тайна прошлого через торрент бесплантно в хорошем качестве Описание: Стефани живет размеренной и спокойной жизнью. У неё скучный муж, раздражающий её сын, ну в общем ничего необычного. Но однажды ... 5 10 1
Info! Золотая раздача, скачанное не засчитывается.
Торрент: Зарегистрирован [2012-05-16 18:03] · скачан: 30 раз
Статус: √ проверено
Размер: 4.3 GB
Как cкачать? Как скачать Тайна прошлого через торрент | UTorrent

% Раздел Тема Автор DL S | L
Фильмы 2011 [ 744 MB ] Тайна прошлого / Secrets from Her Past [2011 DVDRip] MVO Просто Скачать
1 | 0


Последний раз редактировалось: shuller (2012-05-16 18:31), всего редактировалось 1 раз

28-11-2019 20:33  

Отключить всю рекламу на сайте


    Дорогой пользователь! Огромная просьба, поблагодарите релизера, оцените раздачу и оставьте свои комментарий, если Вы скачали Тайна прошлого через торрент бесплатно! Внесите свою лепту в развитие PiratBit!
    Комментировать посты могут только пользователи прошедшие не сложную регистрацию
    Показать сообщения:    

    Тайна прошлого через торрент
    Скачать бесплатно Тайна прошлого
    Тайна прошлого скачать торрент
    Тайна прошлого смотреть онлайн
    Cкачать фильм Тайна прошлого бесплатно
    Тайна прошлого скачать торрент в хорошем качестве
    Тайна прошлого смотреть онлайн бесплатно в хорошем качестве


    Вы не можете начинать темы
    Вы не можете отвечать на сообщения
    Вы не можете редактировать свои сообщения
    Вы не можете удалять свои сообщения
    Вы не можете голосовать в опросах
    Вы не можете прикреплять файлы к сообщениям
    Вы можете скачивать файлы