MEGA NEWS Получи личный уникальный адрес сайта и защити себя от блокировок. Внимание количество ограничено!!!

iTunes

1+1

iTunes

мы

iTunes

1

iTunes

Чернобыль

iTunes

Ральф против интернета

Лицензия

ПШазам

Лицензия

Игра престолов

Лицензия

30
pack

ВАЖНО

!!Акция!!

Alien_RageХит недели

RePack

Resident Evil 21

ИГРА 18+

pack

RePack

Metro:Exodus

!!Акция!!

Alien_Rage

RePack

fifa19

RePack

Assassins Creed: Odyssey

RePack

NEED FOR SPEED™ PAYBACK

3 сезон

9 сезон

Бесстыжие 9 сезон

Все сериалы

все сериалы на PB.wtf

RePack

FAR CRY 5
Ребята, катастрофически не хватает 1900р. для оплаты серверов за АВГУСТ (всвязи с блокировками трафик упал в 3 раза), 1-2р., выручайте.
  

Ленинград (Александр Буравский) [2009 г., драма, военный, BDRip (720p), Оригинал + Субтитры на иностранную речь] pb.wtf

Ленинград через торрент pb.wtf

Размер: 5.17 GB | Добавлен: 7 лет 5 мес. назад | Торрент скачан:95 раз
Скачать  

16-05-2012 18:43 Ленинград Скачать торрент  

Ленинград

Год выпуска: 2009
Страна: Россия Великобритания
Жанр: драма, военный
Продолжительность: 01:50:42
Перевод: Оригинал + Субтитры на иностранную речь

Режиссер: Александр Буравский



В ролях: Мира Сорвино, Армин Мюллер-Шталь, Ольга Сутулова, Алена Стебунова, Михаил Ефремов, Александр Абдулов, Владимир Ильин, Луиза Мосендз, Александр Филиппенко, Сергей Колтаков, Дэвид Веррей, Кристиан Беркель, Александр Байер, Валентин Гафт, Кирилл Лавров, Гэбриел Бирн, Виктор Смирнов, Вадим Логинов, Марат Башаров, Жанна Костенко

Описание: Зима 1941-го. С неба безостановочно сыплются бомбы, превращая дома в руины, а выживших, оставшихся без крова мерзнущих людей душит голод. Гитлер убежден, что блокада превратит ленинградцев в стадо диких зверей, рвущих друг у друга куски пищи. Но ленинградцы остаются людьми. В фильме две героини: Нина Цветкова и Кейт Дэвис. Одна — ленинградка, милиционерша, «рабочая косточка», истовая комсомолка, дочь героя Гражданской, зарубленного в бою с белогвардейцами. А другая — дворянка, родившаяся в Петербурге, дочь белого генерала, эмигрантка, космополитка, журналистка, абсолютно не приспособленная к жизни — не говоря уже о немыслимых тяготах блокады. Они должны быть врагами, но жизнь рассудит иначе. Жизнь, за которую они отчаянно борются.

Качество: BDRip (720p)
Формат: MKV
Видео кодек: Другой MPEG4
Аудио кодек: AC3
Видео: AVC, 1280x544 (2.35:1), 23.976 fps, 5 409 Kbps (0.324 bit/pixel)
Аудио#1: AC-3, 48.0 KHz, 6 ch, 640 Kbps, CBR (Russian)
Аудио#2: AC-3, 48.0 KHz, 6 ch, 640 Kbps, CBR (English)
Cубтитры: русские на иностранную речь, английские (отключаемые)

General
Unique ID : 233694992363033874863831274485822442529 (0xAFD004B389B57C2BBA05344BA7A6CC21)
Complete name : D:\Attack on Leningrad(2009)720p.mkv
Format : Matroska
File size : 5.17 GiB
Duration : 1h 50mn
Overall bit rate : 6 688 Kbps
Encoded date : UTC 2012-05-11 21:24:23
Writing application : mkvmerge v5.4.0 ('Piper') built on Mar 10 2012 13:34:39
Writing library : libebml v1.2.3 + libmatroska v1.3.0

Video
ID : 1
Format : AVC
Format/Info : Advanced Video Codec
Format profile : High@L4.1
Format settings, CABAC : Yes
Format settings, ReFrames : 9 frames
Codec ID : V_MPEG4/ISO/AVC
Duration : 1h 50mn
Bit rate : 5 409 Kbps
Width : 1 280 pixels
Height : 544 pixels
Display aspect ratio : 2.35:1
Frame rate : 23.976 fps
Color space : YUV
Chroma subsampling : 4:2:0
Bit depth : 8 bits
Scan type : Progressive
Bits/(Pixel*Frame) : 0.324
Stream size : 4.08 GiB (79%)
Writing library : x264 core 122 r2184 5c85e0a
Encoding settings : cabac=1 / ref=9 / deblock=1:-3:-3 / analyse=0x3:0x113 / me=umh / subme=10 / psy=1 / psy_rd=0.90:0.00 / mixed_ref=1 / me_range=48 / chroma_me=1 / trellis=2 / 8x8dct=1 / cqm=0 / deadzone=21,11 / fast_pskip=0 / chroma_qp_offset=-2 / threads=6 / sliced_threads=0 / nr=0 / decimate=1 / interlaced=0 / bluray_compat=0 / constrained_intra=0 / bframes=8 / b_pyramid=2 / b_adapt=2 / b_bias=0 / direct=3 / weightb=1 / open_gop=0 / weightp=2 / keyint=240 / keyint_min=23 / scenecut=40 / intra_refresh=0 / rc=2pass / mbtree=0 / bitrate=5409 / ratetol=1.0 / qcomp=0.70 / qpmin=0 / qpmax=69 / qpstep=4 / cplxblur=20.0 / qblur=0.5 / ip_ratio=1.40 / pb_ratio=1.30 / aq=2:0.90
Language : English
Color primaries : BT.709-5, BT.1361, IEC 61966-2-4, SMPTE RP177
Transfer characteristics : BT.709-5, BT.1361
Matrix coefficients : BT.709-5, BT.1361, IEC 61966-2-4 709, SMPTE RP177

Audio #1
ID : 2
Format : AC-3
Format/Info : Audio Coding 3
Mode extension : CM (complete main)
Codec ID : A_AC3
Duration : 1h 50mn
Bit rate mode : Constant
Bit rate : 640 Kbps
Channel(s) : 6 channels
Channel positions : Front: L C R, Side: L R, LFE
Sampling rate : 48.0 KHz
Bit depth : 16 bits
Compression mode : Lossy
Stream size : 507 MiB (10%)
Language : Russian

Audio #2
ID : 3
Format : AC-3
Format/Info : Audio Coding 3
Mode extension : CM (complete main)
Codec ID : A_AC3
Duration : 1h 50mn
Bit rate mode : Constant
Bit rate : 640 Kbps
Channel(s) : 6 channels
Channel positions : Front: L C R, Side: L R, LFE
Sampling rate : 48.0 KHz
Bit depth : 16 bits
Compression mode : Lossy
Stream size : 507 MiB (10%)
Language : English

Text #1
ID : 4
Format : UTF-8
Codec ID : S_TEXT/UTF8
Codec ID/Info : UTF-8 Plain Text
Language : Russian

Text #2
ID : 5
Format : UTF-8
Codec ID : S_TEXT/UTF8
Codec ID/Info : UTF-8 Plain Text
Language : English

Menu
00:00:00.000 : en:Chapter 01
00:07:11.139 : en:Chapter 02
00:10:56.030 : en:Chapter 03
00:14:54.268 : en:Chapter 04
00:17:59.328 : en:Chapter 05
00:22:35.687 : en:Chapter 06
00:27:10.420 : en:Chapter 07
00:32:29.906 : en:Chapter 08
00:38:32.768 : en:Chapter 09
00:44:41.053 : en:Chapter 10
00:49:32.552 : en:Chapter 11
00:56:12.410 : en:Chapter 12
01:01:33.439 : en:Chapter 13
01:06:15.054 : en:Chapter 14
01:12:31.096 : en:Chapter 15
01:17:29.728 : en:Chapter 16
01:23:02.727 : en:Chapter 17
01:28:32.557 : en:Chapter 18
01:37:36.684 : en:Chapter 19
01:44:57.833 : en:Chapter 20
01:50:42.093 : en:Chapter 21

pb.wtf



Скачать Ленинград через торрент http://lostpic.net/images/6f98156e891e0fce33b0669bb7b8adf0.png Скачать фильм Ленинград через торрент бесплантно в хорошем качестве Описание: Зима 1941-го. С неба безостановочно сыплются бомбы, превращая дома в руины, а выживших, оставшихся без крова мерзнущих людей ... 10 10 1
Info! Золотая раздача, скачанное не засчитывается.
Торрент: Зарегистрирован [2012-05-16 18:43] · скачан: 95 раз
Статус: √ проверено
Размер: 5.17 GB
Как cкачать? Как скачать Ленинград через торрент | qTorrent


>> Регистрируемся здесь <<






Отзывы и комментарии о схеме читаем и пишем здесь: ---> Отзывы и комментарии о схеме

Новые благодарочки в телеграм довольных пользователей:
скриншот   скриншот   скриншот   скриншот   скриншот

16-05-2012 19:40 Ленинград Скачать торрент  

Год выпуска: 2007
Благодарю за релиз.pb.wtf



    Дорогой пользователь! Огромная просьба, поблагодарите релизера, оцените раздачу и оставьте свои комментарий, если Вы скачали Ленинград через торрент бесплатно! Внесите свою лепту в развитие PiratBit!
    Комментировать посты могут только пользователи прошедшие не сложную регистрацию
    Показать сообщения:    

    Ленинград через торрент
    Скачать бесплатно Ленинград
    Ленинград скачать торрент
    Ленинград смотреть онлайн
    Cкачать фильм Ленинград бесплатно
    Ленинград скачать торрент в хорошем качестве
    Ленинград смотреть онлайн бесплатно в хорошем качестве


    Вы не можете начинать темы
    Вы не можете отвечать на сообщения
    Вы не можете редактировать свои сообщения
    Вы не можете удалять свои сообщения
    Вы не можете голосовать в опросах
    Вы не можете прикреплять файлы к сообщениям
    Вы можете скачивать файлы