1 сезон

3 сезон

iTunes

1

iTunes

MVO

iTunes

13

1 сезон

RePack

30

Deluxe

pack

Лицензия

ВАЖНО

ИГРА 18+

pack

RePack

MK11

RePack

jed

RePack

fifa19

RePack

RDR2

RePack

NEED FOR SPEED™ PAYBACK

4 сезон

9 сезон

Бесстыжие 9 сезон

Все сериалы

все сериалы на PB.wtf

RePack

FAR CRY 5

Anonymous, добрый вечер, мы катастрофически не успеваем собрать деньги на оплату серверов, помогите нам пожалуйста 5,10,15р., для нас важна любая помощь . В качестве благодарности мы отключим Вам всю рекламу на сайте (укажите свой ник в строку Ваше имя)!

×
  
Magnet ссылка

Вот я какой / That's What I Am (Майкл Павоне) [2011 г., драма, DVD9, Профессиональный (многоголосый) (лицензия)] pb.wtf

Вот я какой через торрент pb.wtf

Размер: 6.92 GB | Добавлен: 9 лет 2 мес. назад | Торрент скачан:16 раз
Скачать  

16-05-2012 21:30 Вот я какой Скачать торрент  

Вот я какой / That's What I Am

Год выпуска: 2011
Страна: США
Жанр: драма
Продолжительность: 01:41:22
Перевод: Профессиональный (многоголосый, закадровый) [Лицензия]
  • Режиссер: Майкл Павоне
  • Продюссер: Нэнси Хирами, Тодд Льюис
  • Сценарий: Майкл Павоне

  • Премьера в мире: 29 апреля 2011

В ролях: Эд Харрис, Чейз Эллисон, Молли Паркер, Дэниэл Робак, Рэнди Ортон, Дэниэл Ельский, Миа Фрэмптон, Эми Мэдиган, Камилль Е. III Буржуа

Описание: «Я учитель. Я певица. Я писатель ».
Этот фильм рассказывает о 13-летнем мальчике по имени Энди Никол, которого учитель английской литературы мистер Саймон ставит в пару с — Большим Джи, длинным, рыжеволосым одноклассником, главным объектом насмешек всей школы. По мере развития истории мистер Саймон оказывается в центре чудовищных слухов.
  • Качество: DVD9
  • Формат: DVD Video
  • Видео кодек: MPEG2
  • Аудио кодек: AC3
  • Видео: MPEG 2, 720x576 (16:9), 25.000 fps, 8 378 Kbps (0.808 bit/pixel)
  • Аудио#1: AC-3, 48.0 KHz, 6 ch, 384 Kbps, CBR (Russian)
  • Аудио#2: AC-3, 48.0 KHz, 2 ch, 192 Kbps, CBR (Russian)
  • Аудио#3: AC-3, 48.0 KHz, 6 ch, 384 Kbps, CBR (English)
  • Субтитры: Русские
  • Дополнительно: Новинки

Скриншоты меню
скриншот  скриншот  скриншот  скриншот  

Скриншоты
скриншот  скриншот  скриншот  скриншот  

Код:

Title: Vot.ai.kakoi.2011.P.DVD.IRONCLUB
Size: 6.92 Gb ( 7 256 764,00 KBytes ) - DVD-9
Enabled regions: 1, 2, 3, 4, 5, 6, 7, 8

VTS_01 :
  Play Length: 00:00:00+01:37:12+{00:00:00}
  Video: PAL 16:9 (720x576) VBR, Auto Letterboxed
  Audio:
      Russian (Dolby AC3, 6 ch)
      Russian (Dolby AC3, 2 ch)
      English (Dolby AC3, 6 ch)
  Subtitles:
      Russian

VTS_02 :
  Play Length: 00:00:00+00:00:05+00:00:13
  Video: PAL 16:9 (720x576) VBR, Auto Letterboxed
  Audio:
      Russian (Dolby AC3, 6 ch)

VTS_03 :
  Play Length: 00:00:00+00:03:20+{00:00:00}
  Video: PAL 16:9 (720x576) VBR, Auto Letterboxed
  Audio:
      Russian (Dolby AC3, 2 ch)

VTS_04 :
  Play Length: 00:00:00+00:03:26+{00:00:00}
  Video: PAL 16:9 (720x576) VBR, Auto Letterboxed
  Audio:
      Russian (Dolby AC3, 2 ch)

* Menus Information *

VIDEO_TS Menu
Video:
      PAL 4:3 (720x576) VBR
      Auto Pan&Scan, Auto Letterboxed
Russian Language Unit :
      Title Menu

VTS_01 Menu
Video:
      PAL 16:9 (720x576) VBR
      Auto Letterboxed
Audio:
      Not specified (LinearPCM, 2 ch)
Russian Language Unit :
      Root Menu

VTS_02 Menu
Video:
      PAL 4:3 (720x576) VBR
      Auto Pan&Scan, Auto Letterboxed
Language Unit :
      Angle menu
Language Unit :

Language Unit :
      Root Menu

VTS_03 Menu
Video:
      PAL 4:3 (720x576) VBR
      Auto Pan&Scan, Auto Letterboxed
Language Unit :
      Angle menu
Language Unit :

Language Unit :


VTS_04 Menu
Video:
      PAL 4:3 (720x576) VBR
      Auto Pan&Scan, Auto Letterboxed
Russian Language Unit :
      Root Menu


Код:

Общее
Полное имя                               : E:\Vot.ai.kakoi.2011.P.DVD.IRONCLUB\VIDEO_TS\VTS_01_1.VOB
Формат                                   : MPEG-PS
Размер файла                             : 1024 Мбайт
Продолжительность                        : 15 м.
Общий поток                              : 9526 Кбит/сек
Библиотека кодирования                   : encoded by TMPGEnc (ver. 2.524.63.181)

Видео
Идентификатор                            : 224 (0xE0)
Формат                                   : MPEG Video
Версия формата                           : Version 2
Профиль формата                          : Main@Main
Параметр BVOP формата                    : Да
Параметр матрицы формата                 : По умолчанию
Продолжительность                        : 15 м.
Битрейт                                  : 8377 Кбит/сек
Ширина                                   : 720 пикселей
Высота                                   : 576 пикселей
Соотношение сторон                       : 16:9
Частота кадров                           : 25,000 кадров/сек
Стандарт вещания                         : PAL
Цветовое пространство                    : YUV
Субдискретизация насыщенности            : 4:2:0
Битовая глубина                          : 8 бит
Метод сжатия                             : С потерями
Бит/(Пиксели*Кадры)                      : 0.808
Размер потока                            : 900 Мбайт (88%)
Библиотека кодирования                   : TMPGEnc / 2.524.63.181 2.524.63.181
Основные цвета                           : BT.470-2 System B, BT.470-2 System G
Характеристики трансфера                 : BT.470-2 System B, BT.470-2 System G
Коэффициенты матрицы                     : BT.470-2 System B, BT.470-2 System G

Аудио #1
Идентификатор                            : 189 (0xBD)-128 (0x80)
Формат                                   : AC-3
Формат/Информация                        : Audio Coding 3
Расширение режима                        : CM (complete main)
Параметр Endianness формата              : Big
Режим смешивания                         : DVD-Video
Продолжительность                        : 15 м.
Вид битрейта                             : Постоянный
Битрейт                                  : 384 Кбит/сек
Каналы                                   : 6 каналов
Расположение каналов                     : Front: L C R, Side: L R, LFE
Частота                                  : 48,0 КГц
Битовая глубина                          : 16 бит
Метод сжатия                             : С потерями
Задержка видео                           : 6 мс.
Размер потока                            : 41,3 Мбайт (4%)

Аудио #2
Идентификатор                            : 189 (0xBD)-129 (0x81)
Формат                                   : AC-3
Формат/Информация                        : Audio Coding 3
Расширение режима                        : CM (complete main)
Параметр Endianness формата              : Big
Режим смешивания                         : DVD-Video
Продолжительность                        : 15 м.
Вид битрейта                             : Постоянный
Битрейт                                  : 192 Кбит/сек
Каналы                                   : 2 канала
Расположение каналов                     : Front: L R
Частота                                  : 48,0 КГц
Битовая глубина                          : 16 бит
Метод сжатия                             : С потерями
Задержка видео                           : 6 мс.
Размер потока                            : 20,6 Мбайт (2%)

Аудио #3
Идентификатор                            : 189 (0xBD)-130 (0x82)
Формат                                   : AC-3
Формат/Информация                        : Audio Coding 3
Расширение режима                        : CM (complete main)
Параметр Endianness формата              : Big
Режим смешивания                         : DVD-Video
Продолжительность                        : 15 м.
Вид битрейта                             : Постоянный
Битрейт                                  : 384 Кбит/сек
Каналы                                   : 6 каналов
Расположение каналов                     : Front: L C R, Side: L R, LFE
Частота                                  : 48,0 КГц
Битовая глубина                          : 16 бит
Метод сжатия                             : С потерями
Задержка видео                           : 6 мс.
Размер потока                            : 41,3 Мбайт (4%)

Текст
Идентификатор                            : 189 (0xBD)-32 (0x20)
Формат                                   : RLE
Формат/Информация                        : Run-length encoding
Режим смешивания                         : DVD-Video

Меню

pb.wtf



Скачать Вот я какой через торрент https://pic1.kartinco.top/images/2000/5nrqqtv6xz.png Скачать фильм Вот я какой через торрент бесплантно в хорошем качестве Описание: «Я учитель. Я певица. Я писатель ».Этот фильм рассказывает о 13-летнем мальчике по имени Энди Никол, которого учитель английской ... 5 10 1
Info! Золотая раздача, скачанное не засчитывается.
Торрент: Зарегистрирован [2012-05-16 21:30] · скачан: 16 раз
Статус: √ проверено
Размер: 6.92 GB
Как cкачать? Как скачать Вот я какой через торрент | UTorrent

28-11-2019 20:33  

Отключить всю рекламу на сайте

    Дорогой пользователь! Огромная просьба, поблагодарите релизера, оцените раздачу и оставьте свои комментарий, если Вы скачали Вот я какой через торрент бесплатно! Внесите свою лепту в развитие PiratBit!
    Комментировать посты могут только пользователи прошедшие не сложную регистрацию
    Показать сообщения:    

    Вот я какой через торрент
    Скачать бесплатно Вот я какой
    Вот я какой скачать торрент
    Вот я какой смотреть онлайн
    Cкачать фильм Вот я какой бесплатно
    Вот я какой скачать торрент в хорошем качестве
    Вот я какой смотреть онлайн бесплатно в хорошем качестве


    Вы не можете начинать темы
    Вы не можете отвечать на сообщения
    Вы не можете редактировать свои сообщения
    Вы не можете удалять свои сообщения
    Вы не можете голосовать в опросах
    Вы не можете прикреплять файлы к сообщениям
    Вы можете скачивать файлы