2 сезон

iTunes

MVO

1

2 сезон

iTunes

iTunes

1 сезон

RePack

30

Ultimate

ВАЖНО

ИГРА 18+

pack

RePack

MK11
pack

Легкие деньги

RePack

jed

RePack

fifa19

RePack

RDR2

RePack

NEED FOR SPEED™ PAYBACK

4 сезон

9 сезон

Бесстыжие 9 сезон

Все сериалы

все сериалы на PB.wtf

RePack

FAR CRY 5

Anonymous, доброй ночи, мы не успеваем собрать деньги на оплату серверов за декабрь и январь, помогите нам пожалуйста в это трудное время. В качестве благодарности мы отключим Вам всю рекламу на сайте (укажите свой ник в строку Ваше имя)!

×
  
Magnet ссылка

[ShemaleStrokers] TS Marina Fuentes [14.05.2012г., Shemale, Solo, Masturbation, SiteRip] pb.wtf

через торрент pb.wtf

Размер: 336 MB | Добавлен: 8 лет 8 мес. назад | Торрент скачан:54 раза
Скачать  

16-05-2012 22:36 Скачать торрент  

[ShemaleStrokers.com]
TS Marina Fuentes
[14.05.2012г.]

Год производства: 2012 г.
Жанр: Shemale, Solo, Masturbation
Продолжительность: 00:27:55

Студия: ShemaleStrokers.com
В ролях: TS Marina Fuentes

Качество видео: SiteRip
Формат видео: WMV
Видео кодек: Windows Media
Аудио кодек: WMA
Видео: 29.970 fps, 1 500 Kbps, 960x540
Аудио: 128 kbps, 44 kHz, stereo CBR

Описание:
Hi, I'm Marina Fuentes. Blond and blue eyed, with the sweetest smile.
Don't let that sweet smile fool you though, I am one nasty and nuaghty TS.
Watch me talk about what gets me off,
then get so hot I have to stroke my huge tranny cock til it shoots white hot tranny cum that I rub all over my tranny tits.

General
Complete name : ts-marinafuentes-scene.wmv
Format : Windows Media
File size : 336 MiB
Duration : 27mn 55s
Overall bit rate : 1 680 Kbps
Maximum Overall bit rate : 1 643 Kbps
Encoded date : UTC 2012-05-13 20:30:38.000

Video
ID : 1
Format : VC-1
Format profile : MP
Codec ID : WMV3
Codec ID/Info : Windows Media Video 9
Codec ID/Hint : WMV3
Description of the codec : Windows Media Video 9 - 2-pass VBR
Duration : 27mn 55s
Bit rate : 1 500 Kbps
Width : 960 pixels
Height : 540 pixels
Display aspect ratio : 16:9
Frame rate : 29.970 fps
Bit depth : 8 bits
Scan type : Progressive
Compression mode : Lossy
Bits/(Pixel*Frame) : 0.097
Stream size : 300 MiB (89%)

Audio
ID : 2
Format : WMA
Format version : Version 2
Codec ID : 161
Codec ID/Info : Windows Media Audio
Description of the codec : Windows Media Audio 9 - 128 kbps, 44 kHz, stereo CBR
Duration : 27mn 55s
Bit rate : 128 Kbps
Channel(s) : 2 channels
Sampling rate : 44.1 KHz
Bit depth : 16 bits
Stream size : 25.6 MiB (8%)
pb.wtf



pack Скачать через торрент http://i34.fastpic.ru/big/2012/0428/14/d87025881b693932b8a92d68ab1cf414.jpg Скачать фильм [ShemaleStrokers] TS Marina Fuentes [14.05.2012г., Shemale, Solo, Masturbation, SiteRip]через торрент бесплантно в хорошем качестве Описание:Hi, I'm Marina Fuentes. Blond and blue eyed, with the sweetest smile.Don't let that sweet smile fool you though, I am one nasty ... 8 10 1
Info! Золотая раздача, скачанное не засчитывается.
Торрент: Зарегистрирован [2012-05-16 22:36] · скачан: 54 раз
Статус: √ проверено
Размер: 336 MB
Как cкачать? Как скачать через торрент | UTorrent

28-11-2019 20:33  

Отключить всю рекламу на сайте

    Дорогой пользователь! Огромная просьба, поблагодарите релизера, оцените раздачу и оставьте свои комментарий, если Вы скачали через торрент бесплатно! Внесите свою лепту в развитие PiratBit!
    Комментировать посты могут только пользователи прошедшие не сложную регистрацию
    Показать сообщения:    

    через торрент
    Скачать бесплатно
    скачать торрент
    смотреть онлайн
    Cкачать фильм бесплатно
    скачать торрент в хорошем качестве
    смотреть онлайн бесплатно в хорошем качестве


    Вы не можете начинать темы
    Вы не можете отвечать на сообщения
    Вы не можете редактировать свои сообщения
    Вы не можете удалять свои сообщения
    Вы не можете голосовать в опросах
    Вы не можете прикреплять файлы к сообщениям
    Вы можете скачивать файлы