Ссылка на приватное зеркало нашего сайта всего за 1$. Внимание количество ограничено!!!

2 сезон

iTunes

1 сезон

1

iTunes

iTunes

iTunes

1 сезон

RePack

30

ИГРА 18+

pack

ВАЖНО

!!Акция!!

Alien_RageХит недели

RePack

MK11
pack

Забери бонус

RePack

jed

!!Акция!!

Alien_Rage

RePack

fifa19

RePack

Assassins Creed: Odyssey

RePack

NEED FOR SPEED™ PAYBACK

4 сезон

9 сезон

Бесстыжие 9 сезон

Все сериалы

все сериалы на PB.wtf

RePack

FAR CRY 5
  

Шаолинь / Xin shao lin si (Бенни Чан) [2011 г., боевик, драма, BDRip (720p), MVO (лицензия) + MVO (BBC Saint-Petersburg) + Original + Sub (Eng)] pb.wtf

Шаолинь через торрент pb.wtf

Размер: 6.75 GB | Добавлен: 8 лет 5 мес. назад | Торрент скачан:326 раз
Скачать  

17-05-2012 13:43 Шаолинь Скачать торрент  

Шаолинь / Xin shao lin si

Год выпуска: 2011
Страна: Гонконг, Китай
Жанр: боевик, драма
Продолжительность: 02:11:04
Перевод: Профессиональный (многоголосый)
  • Режиссер: Бенни Чан
  • Продюссер: Бенни Чан, Альберт Ли, Гуйчжи Сюэ
  • Сценарий: Алан Юэнь, Чи-Квонг Чунг, Цюйюй Ван

  • Бюджет: $29 000 000

  • Лицам до 17 лет обязательно присутствие взрослого

В ролях: Энди Лау, Николас Тсе, Фань Бинбин, Джеки Чан, Бинг Бай, Ю Хин, Юй Шаоцюнь, Ксин Ксин Ксион, Ян Минг Ши, Джеки Ву

Описание: Шаолинь... Вряд ли найдется человек, который не слышал этого легендарного имени и не восхищался безупречной техникой его мастеров боевых искусств. Древняя обитель зачастую оказывалась в гуще сражений, меняя ход истории великой империи.Вражда между китайскими военачальниками достигла своего предела. В безудержном стремлении завоевать соседние территории они погружают страну в пучину раздора. Молодой воин Сяо Че, одержав победу в поединке над одним из шаолиньских мастеров, начинает этим бахвалиться. Но самонадеянность к добру не ведет. В междоусобных распрях гибнет семья Сяо. Ему самому удается чудом спастись. Сяо укрывают шаолиньские монахи. Известия о бесчинствах местного «царька» достигают стен монастыря. Сяо Че и его новые друзья решают вмешаться и защитить простых людей от произвола жестокого завоевателя. Осуществится ли их дерзкий план? Или в финале битвы им придется спасаться бегством?
  • Качество: BDRip (720p)
  • Формат: MKV
  • Видео кодек: AVC
  • Аудио кодек: AC3, DTS
  • Видео: AVC, 1280x544 (2.35:1), 24.000 fps, 4 632 Kbps (0.277 bit/pixel)
  • Аудио: AC-3, 48.0 KHz, 6 ch, 448 Kbps, CBR (Лицензия)
  • Аудио: DTS, 48.0 KHz, 6 ch, 1 510 Kbps, CBR (BBC Saint-Petersburg)
  • Аудио: AC-3, 48.0 KHz, 6 ch, 640 Kbps, CBR (Китайский)
  • Субтитры: Английские

Скриншоты
скриншот  скриншот  скриншот  скриншот  

Код:

Общее
Уникальный идентификатор                 : 244684612647684309416366766467195943493 (0xB8148AD06E33CF52AB69EABFDE5D3A45)
Полное имя                               : E:\Shaolin.2011.P.BDRip.720p.[uniongang.tv].mkv
Формат                                   : Matroska
Версия формата                           : Version 2
Размер файла                             : 6,75 Гбайт
Продолжительность                        : 2 ч. 11 м.
Общий поток                              : 7377 Кбит/сек
Название фильма                          : Shaolin.2011.P.BDRip.720p.[uniongang.tv] by sstonecold
Дата кодирования                         : UTC 2012-05-16 20:22:34
Программа кодирования                    : mkvmerge v5.2.0 ('I can't explain') built on Dec 18 2011 18:12:03
Библиотека кодирования                   : libebml v1.2.3 + libmatroska v1.3.0

Видео
Идентификатор                            : 1
Формат                                   : AVC
Формат/Информация                        : Advanced Video Codec
Профиль формата                          : High@L4.1
Параметр CABAC формата                   : Да
Параметр ReFrames формата                : 12 кадров
Идентификатор кодека                     : V_MPEG4/ISO/AVC
Продолжительность                        : 2 ч. 11 м.
Битрейт                                  : 4632 Кбит/сек
Ширина                                   : 1280 пикселей
Высота                                   : 544 пикселя
Соотношение сторон                       : 2,35:1
Частота кадров                           : 24,000 кадра/сек
Цветовое пространство                    : YUV
Субдискретизация насыщенности            : 4:2:0
Битовая глубина                          : 8 бит
Тип развёртки                            : Прогрессивная
Бит/(Пиксели*Кадры)                      : 0.277
Размер потока                            : 4,24 Гбайт (63%)
Заголовок                                : Shaolin.2011.P.BDRip.720p.[uniongang.tv] by sstonecold
Библиотека кодирования                   : x264 core 119 r2106 07efeb4
Настройки программы                      : cabac=1 / ref=12 / deblock=1:-3:-3 / analyse=0x3:0x113 / me=umh / subme=9 / psy=1 / psy_rd=1.15:0.00 / mixed_ref=1 / me_range=16 / chroma_me=1 / trellis=2 / 8x8dct=1 / cqm=0 / deadzone=6,6 / fast_pskip=0 / chroma_qp_offset=-2 / threads=6 / sliced_threads=0 / nr=0 / decimate=0 / interlaced=0 / bluray_compat=0 / constrained_intra=0 / bframes=7 / b_pyramid=2 / b_adapt=2 / b_bias=0 / direct=3 / weightb=1 / open_gop=0 / weightp=2 / keyint=250 / keyint_min=24 / scenecut=40 / intra_refresh=0 / rc=crf / mbtree=0 / crf=16.0 / qcomp=0.60 / qpmin=0 / qpmax=69 / qpstep=4 / ip_ratio=1.10 / pb_ratio=1.10 / aq=1:0.65
Язык                                     : Chinese
Default                                  : Да
Forced                                   : Нет

Аудио #1
Идентификатор                            : 2
Формат                                   : AC-3
Формат/Информация                        : Audio Coding 3
Расширение режима                        : CM (complete main)
Параметр Endianness формата              : Big
Идентификатор кодека                     : A_AC3
Продолжительность                        : 2 ч. 11 м.
Вид битрейта                             : Постоянный
Битрейт                                  : 448 Кбит/сек
Каналы                                   : 6 каналов
Расположение каналов                     : Front: L C R, Side: L R, LFE
Частота                                  : 48,0 КГц
Битовая глубина                          : 16 бит
Метод сжатия                             : С потерями
Размер потока                            : 420 Мбайт (6%)
Заголовок                                : R5
Язык                                     : Russian
Default                                  : Да
Forced                                   : Нет

Аудио #2
Идентификатор                            : 3
Формат                                   : DTS
Формат/Информация                        : Digital Theater Systems
Идентификатор кодека                     : A_DTS
Продолжительность                        : 2 ч. 11 м.
Вид битрейта                             : Постоянный
Битрейт                                  : 1510 Кбит/сек
Каналы                                   : 6 каналов
Расположение каналов                     : Front: L C R, Side: L R, LFE
Частота                                  : 48,0 КГц
Битовая глубина                          : 16 бит
Метод сжатия                             : С потерями
Размер потока                            : 1,38 Гбайт (20%)
Заголовок                                : BBC Saint-Petersburg
Язык                                     : Russian
Default                                  : Нет
Forced                                   : Нет

Аудио #3
Идентификатор                            : 4
Формат                                   : AC-3
Формат/Информация                        : Audio Coding 3
Расширение режима                        : CM (complete main)
Параметр Endianness формата              : Big
Идентификатор кодека                     : A_AC3
Продолжительность                        : 2 ч. 11 м.
Вид битрейта                             : Постоянный
Битрейт                                  : 640 Кбит/сек
Каналы                                   : 6 каналов
Расположение каналов                     : Front: L C R, Side: L R, LFE
Частота                                  : 48,0 КГц
Битовая глубина                          : 16 бит
Метод сжатия                             : С потерями
Размер потока                            : 600 Мбайт (9%)
Заголовок                                : Mandarin
Язык                                     : Chinese
Default                                  : Нет
Forced                                   : Нет

Текст
Идентификатор                            : 5
Формат                                   : UTF-8
Идентификатор кодека                     : S_TEXT/UTF8
Идентификатор кодека/Информация          : UTF-8 Plain Text
Язык                                     : English
Default                                  : Нет
Forced                                   : Нет

Меню
00:00:00.000                             : :00:00:00.000
00:12:21.458                             : :00:12:21.458
00:24:57.125                             : :00:24:57.125
00:32:46.875                             : :00:32:46.875
00:42:27.042                             : :00:42:27.042
00:55:05.750                             : :00:55:05.750
01:07:35.083                             : :01:07:35.083
01:19:05.250                             : :01:19:05.250
01:32:51.000                             : :01:32:51.000
01:40:34.042                             : :01:40:34.042
01:50:55.917                             : :01:50:55.917
02:02:02.250                             : :02:02:02.250

pb.wtf



Скачать Шаолинь через торрент http://pic.kartinco.top/images/2000/e3i4fbtt1t.png Скачать фильм Шаолинь через торрент бесплантно в хорошем качестве Описание: Шаолинь... Вряд ли найдется человек, который не слышал этого легендарного имени и не восхищался безупречной техникой его мастеров ... 10 10 3
Info! Золотая раздача, скачанное не засчитывается.
Торрент: Зарегистрирован [2012-05-17 13:43] · скачан: 326 раз
Статус: √ проверено
Размер: 6.75 GB
Как cкачать? Как скачать Шаолинь через торрент | qTorrent

% Раздел Тема Автор DL S | L
Азиатские фильмы [ 2.13 GB ] Шаолинь / Shaolin / Xin shao lin si [2011 Гонконг Китай BDRip] MVO + Оригинал Liloo_Foofyga Скачать
1 | 0
Азиатские фильмы [ 2.18 GB ] Шаолинь / Xin shao lin si [2011 HDRip ] shuller Скачать
1 | 0
Фильмы (Blu-ray, BD-Remux, HDDVD) [ 24.1 GB ] Шаолинь / Xin shao lin si [2011 BD-Remux] shuller Скачать
1 | 0
Фильмы (DVD фильмы) [ 5.88 GB ] Шаолинь / Xin shao lin si [2011 DVD9 ] shuller Скачать
1 | 0
Азиатские фильмы [ 2.05 GB ] Шаолинь / Xin shao lin si [2011 HDRip] Чупачупсик Скачать
1 | 0

28-11-2019 20:33  

Отключить всю рекламу на сайте

17-05-2012 14:13 Шаолинь Скачать торрент  

а что в фильме особо,что смотреть лицам до 17 лет с родителями?Смотрел этот фильм еще в прошлом году,но не до конца,видео файл был не полным 15 минут не хватало и нечего криминального там не увидел,тем более Джеки Чан в кровавых и насильственных фильмах не снимается
Все вопросы прошу адресовать MPAA!pb.wtf



18-05-2012 13:52 Шаолинь Скачать торрент  

Спасибо за скорость и за фильм!pb.wtf



18-05-2012 15:23 Шаолинь Скачать торрент  

Спасибо! Только что досмотрел. Очень хороший фильм! И концовка со смыслом. Рекомендую всем.
И спасибо за качественный рип и, конечно же, за золото.pb.wtf



18-05-2012 19:20 Шаолинь Скачать торрент  

Классный фильм рекомендую всем смотреть!pb.wtf



    Дорогой пользователь! Огромная просьба, поблагодарите релизера, оцените раздачу и оставьте свои комментарий, если Вы скачали Шаолинь через торрент бесплатно! Внесите свою лепту в развитие PiratBit!
    Комментировать посты могут только пользователи прошедшие не сложную регистрацию
    Показать сообщения:    

    Шаолинь через торрент
    Скачать бесплатно Шаолинь
    Шаолинь скачать торрент
    Шаолинь смотреть онлайн
    Cкачать фильм Шаолинь бесплатно
    Шаолинь скачать торрент в хорошем качестве
    Шаолинь смотреть онлайн бесплатно в хорошем качестве


    Вы не можете начинать темы
    Вы не можете отвечать на сообщения
    Вы не можете редактировать свои сообщения
    Вы не можете удалять свои сообщения
    Вы не можете голосовать в опросах
    Вы не можете прикреплять файлы к сообщениям
    Вы можете скачивать файлы