новый адрес
Ссылка на приватное зеркало всего за 1$. Внимание количество ограничено!!!

iTunes

1+1

iTunes

мы

WEB-DL

1

iTunes

Чернобыль

iTunes

Ральф против интернета

Лицензия

ПШазам

Лицензия

Оно 2

Лицензия

30
pack

Вам бонус

ВАЖНО

!!Акция!!

Alien_RageХит недели

RePack

Resident Evil 21

ИГРА 18+

pack

RePack

jed

!!Акция!!

Alien_Rage

RePack

fifa19

RePack

Assassins Creed: Odyssey

RePack

NEED FOR SPEED™ PAYBACK

3 сезон

9 сезон

Бесстыжие 9 сезон

Все сериалы

все сериалы на PB.wtf

RePack

FAR CRY 5
Ребята, катастрофически не хватает 1900р. для оплаты серверов за Октябрь (всвязи с блокировками трафик упал в 3 раза), 1-2р., выручайте.
  

Мальчик с велосипедом / Le Gamin au velo (Жан-Пьер Дарденн, Люк Дарденн) [2011 г., драма, BDRip (720p), Профессиональный (многоголосый) (лицензия)] pb.wtf

Мальчик с велосипедом через торрент pb.wtf

Размер: 4.81 GB | Добавлен: 7 лет 6 мес. назад | Торрент скачан:13 раз
Скачать  

18-05-2012 21:29 Мальчик с велосипедом Скачать торрент  


Мальчик с велосипедом / Le Gamin au velo
Год выпуска: 2011
Страна: Франция / Италия / Бельгия, Archipel 35 / Belgacom TV / Canal+ [fr] / Casa Kafka Pictures / Centre National de la Cinematographie (CNC)
Жанр: драма
Продолжительность: 01:27:20
Перевод: Профессиональный (многоголосый) (Лицензия)

Режиссер: Жан-Пьер Дарденн, Люк Дарденн

В ролях: Тома Доре, Сесиль де Франс, Жереми Ренье, Эгон ди Матео, Оливье Гурме, Клоди Дельфос, Жан-Мишель Бальтазар, Фредерик Дюссен

Описание: Двенадцатилетний Сирил живет одной мыслью: найти своего отца, сдавшего его в детстве в приют. Мальчик убегает из детского дома, чтобы разыскать пропавшего папу. Его ловят, возвращают в приют, но он снова убегает, и тут происходит чудо...
Случайно Сирил знакомится с Самантой, хозяйкой салона причесок, которая соглашается брать его к себе на выходные. Сирил не замечает любви Саманты, любви, в которой так нуждается.

Качество: BDRip (720p)
Формат: MKV
Видео кодек: AVC
Аудио кодек: AC3
Видео: AVC, 1280x690 (1.855), 24.000 fps, 6 999 Kbps (0.330 bit/pixel)
Аудио#1: AC-3, 48.0 KHz, 2 ch, 256 Kbps, CBR (Russian)
Аудио#2: AC-3, 48.0 KHz, 6 ch, 640 Kbps, CBR (French)
Субтитры: Russian, English

General
Unique ID : 230558468265519507568365337743349247613 (0xAD73F21FB78837E8BE50F36FCB1FEE7D)
Complete name : D:\Malchik.s.velosipedom.2011.P.BDRip.720p.ELEKTRI4KA.mkv
Format : Matroska
File size : 4.81 GiB
Duration : 1h 27mn
Overall bit rate : 7 892 Kbps
Movie name : Malchik.s.velosipedom.2011.P.BDRip.720p.ELEKTRI4KA - by sstonecold -
Encoded date : UTC 2012-05-18 19:28:21
Writing application : mkvmerge v5.2.0 ('I can't explain') built on Dec 18 2011 18:12:03
Writing library : libebml v1.2.3 + libmatroska v1.3.0

Video
ID : 1
Format : AVC
Format/Info : Advanced Video Codec
Format profile : High@L4.1
Format settings, CABAC : Yes
Format settings, ReFrames : 9 frames
Codec ID : V_MPEG4/ISO/AVC
Duration : 1h 27mn
Bit rate : 6 999 Kbps
Width : 1 280 pixels
Height : 690 pixels
Display aspect ratio : 1.855
Frame rate : 24.000 fps
Color space : YUV
Chroma subsampling : 4:2:0
Bit depth : 8 bits
Scan type : Progressive
Bits/(Pixel*Frame) : 0.330
Stream size : 4.17 GiB (87%)
Title : Malchik.s.velosipedom.2011.P.BDRip.720p.ELEKTRI4KA - by sstonecold -
Writing library : x264 core 116 r2074 2641b9e
Encoding settings : cabac=1 / ref=9 / deblock=1:-3:-3 / analyse=0x3:0x133 / me=esa / subme=11 / psy=1 / psy_rd=1.00:0.05 / mixed_ref=1 / me_range=32 / chroma_me=1 / trellis=2 / 8x8dct=1 / cqm=0 / deadzone=21,11 / fast_pskip=0 / chroma_qp_offset=-3 / threads=12 / sliced_threads=0 / nr=0 / decimate=0 / interlaced=0 / bluray_compat=0 / constrained_intra=0 / bframes=8 / b_pyramid=2 / b_adapt=2 / b_bias=0 / direct=3 / weightb=1 / open_gop=0 / weightp=2 / keyint=360 / keyint_min=24 / scenecut=40 / intra_refresh=0 / rc_lookahead=250 / rc=2pass / mbtree=1 / bitrate=6999 / ratetol=1.0 / qcomp=0.70 / qpmin=0 / qpmax=69 / qpstep=4 / cplxblur=20.0 / qblur=0.5 / vbv_maxrate=38000 / vbv_bufsize=30000 / nal_hrd=none / ip_ratio=1.40 / aq=2:1.05
Language : English

Audio #1
ID : 2
Format : AC-3
Format/Info : Audio Coding 3
Mode extension : CM (complete main)
Codec ID : A_AC3
Duration : 1h 27mn
Bit rate mode : Constant
Bit rate : 256 Kbps
Channel(s) : 2 channels
Channel positions : Front: L R
Sampling rate : 48.0 KHz
Bit depth : 16 bits
Compression mode : Lossy
Delay relative to video : 9s 880ms
Stream size : 160 MiB (3%)
Language : Russian

Audio #2
ID : 3
Format : AC-3
Format/Info : Audio Coding 3
Mode extension : CM (complete main)
Codec ID : A_AC3
Duration : 1h 27mn
Bit rate mode : Constant
Bit rate : 640 Kbps
Channel(s) : 6 channels
Channel positions : Front: L C R, Side: L R, LFE
Sampling rate : 48.0 KHz
Bit depth : 16 bits
Compression mode : Lossy
Stream size : 400 MiB (8%)
Language : French

Text #1
ID : 4
Format : UTF-8
Codec ID : S_TEXT/UTF8
Codec ID/Info : UTF-8 Plain Text
Language : Russian

Text #2
ID : 5
Format : UTF-8
Codec ID : S_TEXT/UTF8
Codec ID/Info : UTF-8 Plain Text
Language : English

pb.wtf



Скачать Мальчик с велосипедом через торрент http://lostpic.net/images/5345ee24a3d3fd17e0f74367173d9f4e.jpg Скачать фильм Мальчик с велосипедом через торрент бесплантно в хорошем качестве Описание: Двенадцатилетний Сирил живет одной мыслью: найти своего отца, сдавшего его в детстве в приют. Мальчик убегает из детского дома, ... 10 10 1
Info! Золотая раздача, скачанное не засчитывается.
Торрент: Зарегистрирован [2012-05-18 21:29] · скачан: 13 раз
Статус: √ проверено
Размер: 4.81 GB
Как cкачать? Как скачать Мальчик с велосипедом через торрент | qTorrent

28-11-2019 20:33  

Отключить всю рекламу на сайте

    Дорогой пользователь! Огромная просьба, поблагодарите релизера, оцените раздачу и оставьте свои комментарий, если Вы скачали Мальчик с велосипедом через торрент бесплатно! Внесите свою лепту в развитие PiratBit!
    Комментировать посты могут только пользователи прошедшие не сложную регистрацию
    Показать сообщения:    

    Мальчик с велосипедом через торрент
    Скачать бесплатно Мальчик с велосипедом
    Мальчик с велосипедом скачать торрент
    Мальчик с велосипедом смотреть онлайн
    Cкачать фильм Мальчик с велосипедом бесплатно
    Мальчик с велосипедом скачать торрент в хорошем качестве
    Мальчик с велосипедом смотреть онлайн бесплатно в хорошем качестве


    Вы не можете начинать темы
    Вы не можете отвечать на сообщения
    Вы не можете редактировать свои сообщения
    Вы не можете удалять свои сообщения
    Вы не можете голосовать в опросах
    Вы не можете прикреплять файлы к сообщениям
    Вы можете скачивать файлы