Ссылка на приватное зеркало нашего сайта всего за 1$. Внимание количество ограничено!!!

2 сезон

iTunes

1 сезон

1

2 сезон

2 сезон

iTunes

1 сезон

RePack

30

Ultimate

ВАЖНО

ИГРА 18+

pack

RePack

MK11
pack

Забери бонус

RePack

jed

!!Акция!!

Alien_Rage

RePack

fifa19

RePack

Assassins Creed: Odyssey

RePack

NEED FOR SPEED™ PAYBACK

4 сезон

9 сезон

Бесстыжие 9 сезон

Все сериалы

все сериалы на PB.wtf

RePack

FAR CRY 5
  

Ханна. Совершенное оружие / Hanna (Джо Райт / Joe Wright) [2011, США, Германия, Великобритания, боевик, триллер, криминал, детектив, BDRemux 1080p] DUB Sub Rus + Original Eng pb.wtf

Ханна. Совершенное оружие через торрент pb.wtf

Размер: 27.85 GB | Добавлен: 8 лет 6 мес. назад | Торрент скачан:46 раз
Скачать  

19-05-2012 22:36 Ханна. Совершенное оружие Скачать торрент  


Ханна. Совершенное оружие / Hanna
Год выпуска: 2011
Страна: США
Жанр: боевик, триллер, криминал, детектив
Продолжительность: 01:51:02
Перевод: Профессиональный (дублированный)
Режиссер: Джо Райт
Продюссер: Марти Адельштейн, Скотт Немес, Лесли Холлерэн
Сценарий: Сет Локхед, Дэвид Фарр
Бюджет: $30 000 000
детям до 13 лет просмотр не желателен
Мировой рейтинг IMDB 6.90 (79 386)

В ролях: Сирша Ронан, Кейт Бланшетт, Эрик Бана, Том Холландер, Оливия Уильямс, Джейсон Флеминг, Джессика Барден, Мартин Вуттке, Альдо Маланд, Вики Крипс, Вероника Лысакова, Виктория Тарасова, Анатолий Белый, Сергей Бурунов, Юлия Чебакова
Описание: Хрупкая на первый взгляд Ханна - идеальный солдат. Тайна ее рождения ревностно охраняется американским правительством. Ее миссия - отомстить бывшим работодателям отца, некогда секретного агента. Спецслужбы всего мира выходят на след девочки-убийцы. Охота начинается..
Качество: BDRemux
Формат: MKV
Видео: AVC,1920x1080,31008 Kbps, 23.976 fps
Аудио 1: Russian: 48 kHz, DTS, 3/2 (L,C,R,l,r) + LFE ch, ~768.00 kbps avg
Аудио 2: English / DTS-HD Master Audio / 5.1 / 48 kHz / 3909 kbps / 24-bit (DTS Core: 5.1 / 48 kHz / 1509 kbps / 24-bit)
Аудио 3: English: 48 kHz, AC3, 2/0 (L,R) ch, ~192.00 kbps avg |Descriptive|
Аудио 4: English: 48 kHz, AAС, 2/0 (L,R) ch, ~192.00 kbps avg |Commentary|
Cубтитры: русские (forced, full, SDH-voronine), английские
Чаптеры:есть
скриншот   скриншот   скриншот   скриншот   скриншот   скриншот  


General

Unique ID : 226223241941534185060316840278119356716 (0xAA3102F6B8720766A3DA9591DEE7192C)
Complete name : D:\Hanna (2011) 1080p BD-Remux.mkv
Format : Matroska
Format version : Version 2
File size : 27.9 GiB
Duration : 1h 51mn
Overall bit rate mode : Variable
Overall bit rate : 35.9 Mbps
Movie name : -Talian-
Encoded date : UTC 2012-05-19 12:48:13
Writing application : mkvmerge v5.3.0 ('I could have danced') built on Feb 9 2012 10:38:07
Writing library : libebml v1.2.3 + libmatroska v1.3.0

Video
ID : 1
Format : AVC
Format/Info : Advanced Video Codec
Format profile : High@L4.1
Format settings, CABAC : Yes
Format settings, ReFrames : 4 frames
Format settings, GOP : M=3, N=12
Codec ID : V_MPEG4/ISO/AVC
Duration : 1h 51mn
Bit rate mode : Variable
Bit rate : 30.8 Mbps
Maximum bit rate : 35.0 Mbps
Width : 1 920 pixels
Height : 1 080 pixels
Display aspect ratio : 16:9
Frame rate : 23.976 fps
Color space : YUV
Chroma subsampling : 4:2:0
Bit depth : 8 bits
Scan type : Progressive
Bits/(Pixel*Frame) : 0.620
Stream size : 23.9 GiB (86%)
Title : Hanna (2011) 1080p BD-Remux
Language : English
Default : No
Forced : No
Color primaries : BT.709-5, BT.1361, IEC 61966-2-4, SMPTE RP177
Transfer characteristics : BT.709-5, BT.1361
Matrix coefficients : BT.709-5, BT.1361, IEC 61966-2-4 709, SMPTE RP177

Audio #1
ID : 2
Format : DTS
Format/Info : Digital Theater Systems
Codec ID : A_DTS
Duration : 1h 51mn
Bit rate mode : Constant
Bit rate : 755 Kbps
Channel(s) : 6 channels
Channel positions : Front: L C R, Side: L R, LFE
Sampling rate : 48.0 KHz
Bit depth : 24 bits
Compression mode : Lossy
Stream size : 599 MiB (2%)
Title : DUB-R5
Language : Russian
Default : Yes
Forced : No

Audio #2
ID : 3
Format : DTS
Format/Info : Digital Theater Systems
Format profile : MA / Core
Codec ID : A_DTS
Duration : 1h 51mn
Bit rate mode : Variable
Bit rate : 3 220 Kbps / 1 510 Kbps
Channel(s) : 6 channels
Channel positions : Front: L C R, Side: L R, LFE
Sampling rate : 48.0 KHz
Bit depth : 24 bits
Compression mode : Lossless / Lossy
Title : Original
Language : English
Default : No
Forced : No

Audio #3
ID : 4
Format : AC-3
Format/Info : Audio Coding 3
Format profile : Dolby Digital
Mode extension : CM (complete main)
Format settings, Endianness : Big
Codec ID : A_AC3
Duration : 1h 51mn
Bit rate mode : Constant
Bit rate : 192 Kbps
Channel(s) : 2 channels
Channel positions : Front: L R
Sampling rate : 48.0 KHz
Bit depth : 16 bits
Compression mode : Lossy
Stream size : 152 MiB (1%)
Title : Descriptive
Language : English
Default : No
Forced : No

Audio #4
ID : 5
Format : AC-3
Format/Info : Audio Coding 3
Format profile : Dolby Digital
Mode extension : CM (complete main)
Format settings, Endianness : Big
Codec ID : A_AC3
Duration : 1h 51mn
Bit rate mode : Constant
Bit rate : 192 Kbps
Channel(s) : 2 channels
Channel positions : Front: L R
Sampling rate : 48.0 KHz
Bit depth : 16 bits
Compression mode : Lossy
Stream size : 152 MiB (1%)
Title : Commentary
Language : English
Default : No
Forced : No

Text #1
ID : 6
Format : UTF-8
Codec ID : S_TEXT/UTF8
Codec ID/Info : UTF-8 Plain Text
Title : Sub-forced
Language : Russian
Default : Yes
Forced : No

Text #2
ID : 7
Format : UTF-8
Codec ID : S_TEXT/UTF8
Codec ID/Info : UTF-8 Plain Text
Title : Sub-full
Language : Russian
Default : No
Forced : No

Text #3
ID : 8
Format : UTF-8
Codec ID : S_TEXT/UTF8
Codec ID/Info : UTF-8 Plain Text
Title : Sub-SDH
Language : Russian
Default : No
Forced : No

Text #4
ID : 9
Format : UTF-8
Codec ID : S_TEXT/UTF8
Codec ID/Info : UTF-8 Plain Text
Title : Sub
Language : English
Default : No
Forced : No

Menu
00:00:00.000 : Chapter 1
00:03:25.789 : Chapter 2
00:06:35.645 : Chapter 3
00:09:42.665 : Chapter 4
00:11:58.301 : Chapter 5
00:16:47.423 : Chapter 6
00:21:33.542 : Chapter 7
00:25:08.590 : Chapter 8
00:28:51.146 : Chapter 9
00:32:25.193 : Chapter 10
00:35:21.870 : Chapter 11
00:38:40.902 : Chapter 12
00:44:22.577 : Chapter 13
00:46:33.541 : Chapter 14
00:48:57.852 : Chapter 15
00:53:31.291 : Chapter 16
00:56:32.139 : Chapter 17
00:59:01.288 : Chapter 18
01:01:08.582 : Chapter 19
01:05:16.496 : Chapter 20
01:07:46.813 : Chapter 21
01:12:33.432 : Chapter 22
01:17:49.582 : Chapter 23
01:21:03.108 : Chapter 24
01:25:05.350 : Chapter 25
01:29:45.130 : Chapter 26
01:31:27.565 : Chapter 27
01:37:25.256 : Chapter 28
01:41:04.976 : Chapter 29
01:44:20.337 : Chapter 30

pb.wtf



Скачать Ханна. Совершенное оружие через торрент http://i38.fastpic.ru/big/2012/0515/77/baa1993e523a44a06cf6b8c4326b7177.png Скачать фильм Ханна. Совершенное оружие через торрент бесплантно в хорошем качестве Описание: Хрупкая на первый взгляд Ханна - идеальный солдат. Тайна ее рождения ревностно охраняется американским правительством. Ее миссия ... 5 10 1
Info! Золотая раздача, скачанное не засчитывается.
Торрент: Зарегистрирован [2012-05-19 22:36] · скачан: 46 раз
Статус: √ проверено
Размер: 27.85 GB
Как cкачать? Как скачать Ханна. Совершенное оружие через торрент | qTorrent

% Раздел Тема Автор DL S | L
Фильмы [HD 720p, 1080p] (Хороший звук DUB, MVO) [ 15.1 GB ] Ханна. Совершенное оружие / Hanna [2011 Германия BDRip1080p] DUB Sub rus + original eng Shmel Скачать
1 | 0

28-11-2019 20:33  

Отключить всю рекламу на сайте

20-05-2012 03:31 Ханна. Совершенное оружие Скачать торрент  

Какой ответ вы хотите услышать/You want to hear what answer?

--
порно видео малолетки
порнуха скачатьpb.wtf



20-05-2012 09:29 Ханна. Совершенное оружие Скачать торрент  

baybymarussko
тыpb.wtf



20-05-2012 11:57 Ханна. Совершенное оружие Скачать торрент  

раздаю, но инет гонит. отдача пока такая. выше пока не будет.pb.wtf



20-05-2012 12:57 Ханна. Совершенное оружие Скачать торрент  

Как фильм то? ребятишки. Я не видел и не в курсе!pb.wtf



20-05-2012 22:21 Ханна. Совершенное оружие Скачать торрент  

отличный фильм. посмотри.pb.wtf



    Дорогой пользователь! Огромная просьба, поблагодарите релизера, оцените раздачу и оставьте свои комментарий, если Вы скачали Ханна. Совершенное оружие через торрент бесплатно! Внесите свою лепту в развитие PiratBit!
    Комментировать посты могут только пользователи прошедшие не сложную регистрацию
    Показать сообщения:    

    Ханна. Совершенное оружие через торрент
    Скачать бесплатно Ханна. Совершенное оружие
    Ханна. Совершенное оружие скачать торрент
    Ханна. Совершенное оружие смотреть онлайн
    Cкачать фильм Ханна. Совершенное оружие бесплатно
    Ханна. Совершенное оружие скачать торрент в хорошем качестве
    Ханна. Совершенное оружие смотреть онлайн бесплатно в хорошем качестве


    Вы не можете начинать темы
    Вы не можете отвечать на сообщения
    Вы не можете редактировать свои сообщения
    Вы не можете удалять свои сообщения
    Вы не можете голосовать в опросах
    Вы не можете прикреплять файлы к сообщениям
    Вы можете скачивать файлы