Ссылка на приватное зеркало нашего сайта всего за 1$. Внимание количество ограничено!!!

2 сезон

iTunes

1 сезон

1

iTunes

iTunes

iTunes

1 сезон

RePack

30

ИГРА 18+

pack

ВАЖНО

!!Акция!!

Alien_RageХит недели

RePack

MK11
pack

Забери бонус

RePack

jed

!!Акция!!

Alien_Rage

RePack

fifa19

RePack

Assassins Creed: Odyssey

RePack

NEED FOR SPEED™ PAYBACK

4 сезон

9 сезон

Бесстыжие 9 сезон

Все сериалы

все сериалы на PB.wtf

RePack

FAR CRY 5
  

Пожиратели / Intruders (Хуан Карлос Фреснадильо) [2011 г., ужасы, триллер, BDRip (1080p), DUB + Оригинал] pb.wtf

Пожиратели через торрент pb.wtf

Размер: 10.01 GB | Добавлен: 8 лет 5 мес. назад | Торрент скачан:122 раза
Скачать  

20-05-2012 21:33 Пожиратели Скачать торрент  


Пожиратели / Intruders
«Ваш страх разбудит их»
Год выпуска: 2011
Страна: США, Великобритания, Испания
Жанр: ужасы, триллер
Продолжительность: 01:39:59
Перевод: Дубляж + Оригинал

Режиссер: Хуан Карлос Фреснадильо

В ролях: Кэрис Ван Хаутен, Клайв Оуэн, Даниэль Брюль, Элла Пурнелла, Керри Фокс, Пилар Лопес де Айяла, Элла Хант, Лолита Чакрабарти, Имоджен Грэй, Марк Уингетт

Описание: В Мадриде 8-летний мальчик Хуан рассказывает родителям жуткие истории. Его мать, Луиза, предполагает, что богатое воображение отрока, подпитанное яркими и реалистичными ночными кошмарами являются основной причиной нарушения сна и психического надлома ребенка. Однако Хуан продолжает настаивать на том, что жуткие существа вовсе не плод его больного воображения.В то же самое время в Лондоне 11-летняя Миа рассказывает сверстниками устрашающие истории об инфернальном чудовище, которое ищет контакта с миром людей через комнату маленького мальчика где-то в материковой части Европы...

Качество: BDRip (1080p)Источник: Intruders 2011 1080p Blu-ray AVC DTS-HD MA 5.1-CHDBits
Формат: MKV
Видео кодек: AVC
Аудио кодек: DTS
Видео: 1916 x 816 at 23.976 fps, x264@L4.1, 2pass, ~11.8 Mbps avg
Аудио#1: Russian: 48 kHz, DTS, 3/2 (L,C,R,l,r) + LFE ch, ~755.00 kbps avg |Дубляж, Blu-Ray CEE|
Аудио#2: English: 48 kHz, DTS, 3/2 (L,C,R,l,r) + LFE ch, ~1510.00 kbps avg
Субтитры: Russian(Forced), Russian(Full), English(Forced), English(Full)
Рип от CtrlHD! :ad:
General
Unique ID : 247169743344990788511187178964163214774 (0xB9F32937A76C1DB483D379A9377BBDB6)
Complete name : D:\Intruders.2011.1080p.BluRay.x264.Rus.Eng.HDCLUB.mkv
Format : Matroska
File size : 10.0 GiB
Duration : 1h 39mn
Overall bit rate : 14.3 Mbps
Movie name : Intruders (2011) - Release for HDCLUB
Encoded date : UTC 2012-05-19 09:48:42
Writing application : mkvmerge v3.4.0 ('Rapunzel') сборка от May 15 2010 09:38:20
Writing library : libebml v0.8.0 + libmatroska v0.9.0

Video
ID : 1
Format : AVC
Format/Info : Advanced Video Codec
Format profile : High@L4.1
Format settings, CABAC : Yes
Format settings, ReFrames : 4 frames
Codec ID : V_MPEG4/ISO/AVC
Duration : 1h 39mn
Bit rate : 11.8 Mbps
Width : 1 916 pixels
Height : 816 pixels
Display aspect ratio : 2.35:1
Frame rate : 23.976 fps
Color space : YUV
Chroma subsampling : 4:2:0
Bit depth : 8 bits
Scan type : Progressive
Bits/(Pixel*Frame) : 0.314
Stream size : 8.23 GiB (82%)
Writing library : x264 core 124 r2197kMod 69a0443
Encoding settings : cabac=1 / ref=4 / deblock=1:-3:-3 / analyse=0x3:0x113 / me=umh / subme=11 / psy=1 / fade_compensate=0.00 / psy_rd=1.15:0.00 / mixed_ref=1 / me_range=16 / chroma_me=1 / trellis=2 / 8x8dct=1 / cqm=0 / deadzone=21,11 / fast_pskip=0 / chroma_qp_offset=-2 / threads=6 / sliced_threads=0 / nr=0 / decimate=0 / interlaced=0 / bluray_compat=0 / constrained_intra=0 / bframes=8 / b_pyramid=2 / b_adapt=2 / b_bias=0 / direct=3 / weightb=1 / open_gop=0 / weightp=2 / keyint=250 / keyint_min=23 / scenecut=40 / intra_refresh=0 / rc=crf / mbtree=0 / crf=18.0000 / qcomp=0.70 / qpmin=0 / qpmax=69 / qpstep=4 / ip_ratio=1.30 / pb_ratio=1.20 / aq=1:0.70
Language : English

Audio #1
ID : 2
Format : DTS
Format/Info : Digital Theater Systems
Codec ID : A_DTS
Duration : 1h 39mn
Bit rate mode : Constant
Bit rate : 755 Kbps
Channel(s) : 6 channels
Channel positions : Front: L C R, Side: L R, LFE
Sampling rate : 48.0 KHz
Bit depth : 24 bits
Compression mode : Lossy
Stream size : 540 MiB (5%)
Language : Russian

Audio #2
ID : 3
Format : DTS
Format/Info : Digital Theater Systems
Codec ID : A_DTS
Duration : 1h 39mn
Bit rate mode : Constant
Bit rate : 1 510 Kbps
Channel(s) : 6 channels
Channel positions : Front: L C R, Side: L R, LFE
Sampling rate : 48.0 KHz
Bit depth : 24 bits
Compression mode : Lossy
Delay relative to video : 11ms
Stream size : 1.05 GiB (11%)
Language : English

Text #1
ID : 4
Format : UTF-8
Codec ID : S_TEXT/UTF8
Codec ID/Info : UTF-8 Plain Text
Title : Forced
Language : Russian

Text #2
ID : 5
Format : UTF-8
Codec ID : S_TEXT/UTF8
Codec ID/Info : UTF-8 Plain Text
Title : Full
Language : Russian

Text #3
ID : 6
Format : UTF-8
Codec ID : S_TEXT/UTF8
Codec ID/Info : UTF-8 Plain Text
Language : English

Text #4
ID : 7
Format : UTF-8
Codec ID : S_TEXT/UTF8
Codec ID/Info : UTF-8 Plain Text
Language : English

Menu
00:00:00.000 : en:Chapter 1
00:08:09.656 : en:Chapter 2
00:15:37.645 : en:Chapter 3
00:23:58.228 : en:Chapter 4
00:33:49.402 : en:Chapter 5
00:44:55.985 : en:Chapter 6
00:50:50.714 : en:Chapter 7
00:58:30.507 : en:Chapter 8
01:06:43.291 : en:Chapter 9
01:16:32.004 : en:Chapter 10
01:21:19.708 : en:Chapter 11
01:34:34.294 : en:Chapter 12

pb.wtf



Скачать Пожиратели через торрент http://lostpic.net/images/a2d6c501bbe75406c617bbd5b74a1c0c.jpg Скачать фильм Пожиратели через торрент бесплантно в хорошем качестве Описание: В Мадриде 8-летний мальчик Хуан рассказывает родителям жуткие истории. Его мать, Луиза, предполагает, что богатое воображение ... 10 10 1
Info! Золотая раздача, скачанное не засчитывается.
Торрент: Зарегистрирован [2012-05-20 21:33] · скачан: 122 раз
Статус: √ проверено
Размер: 10.01 GB
Как cкачать? Как скачать Пожиратели через торрент | qTorrent

% Раздел Тема Автор DL S | L
Фильмы [HD 720p, 1080p] (Хороший звук DUB, MVO) [ 4.91 GB ] Пожиратели / Intruders [2011 BDRip DUB + Оригинал] ~Relizer~ Скачать
1 | 0


Последний раз редактировалось: ~Relizer~ (2012-05-21 12:57), всего редактировалось 1 раз

28-11-2019 20:33  

Отключить всю рекламу на сайте

06-06-2012 09:17 Пожиратели Скачать торрент  

нормально, на 4pb.wtf



    Дорогой пользователь! Огромная просьба, поблагодарите релизера, оцените раздачу и оставьте свои комментарий, если Вы скачали Пожиратели через торрент бесплатно! Внесите свою лепту в развитие PiratBit!
    Комментировать посты могут только пользователи прошедшие не сложную регистрацию
    Показать сообщения:    

    Пожиратели через торрент
    Скачать бесплатно Пожиратели
    Пожиратели скачать торрент
    Пожиратели смотреть онлайн
    Cкачать фильм Пожиратели бесплатно
    Пожиратели скачать торрент в хорошем качестве
    Пожиратели смотреть онлайн бесплатно в хорошем качестве


    Вы не можете начинать темы
    Вы не можете отвечать на сообщения
    Вы не можете редактировать свои сообщения
    Вы не можете удалять свои сообщения
    Вы не можете голосовать в опросах
    Вы не можете прикреплять файлы к сообщениям
    Вы можете скачивать файлы