2 сезон

iTunes

1 сезон

1

iTunes

iTunes

iTunes

1 сезон

RePack

30

ИГРА 18+

pack

ВАЖНО

!!Акция!!

Alien_RageХит недели

RePack

MK11
pack

Забери бонус

RePack

jed

!!Акция!!

Alien_Rage

RePack

fifa19

RePack

Assassins Creed: Odyssey

RePack

NEED FOR SPEED™ PAYBACK

4 сезон

9 сезон

Бесстыжие 9 сезон

Все сериалы

все сериалы на PB.wtf

RePack

FAR CRY 5
  

Вавилон Н.Э / Babylon A.D (Матье Кассовиц) [2008 г., боевик, приключения, фантастика, триллер, BDRip (720p), Дубляж + оригинал] / Расширенная версия pb.wtf

Вавилон Н.Э через торрент pb.wtf

Размер: 5.44 GB | Добавлен: 8 лет 5 мес. назад | Торрент скачан:247 раз
Скачать  

21-05-2012 04:52 Вавилон Н.Э Скачать торрент  

Вавилон Н.Э. / Babylon A.D.Расширенная версияГод выпуска: 2008
Страна: США, Франция, Великобритания
Жанр: боевик, приключения, фантастика, триллер
Продолжительность: 01:40:58
Перевод: Профессиональный (полное дублирование) + оригинал

Режиссер: Матье Кассовиц

В ролях: Вин Дизель, Мишель Йео, Мелани Тьерри, Жерар Депардье, Шарлотта Рэмплинг, Марк Стронг, Ламберт Уилсон, Жером Ле Баннер, Джоэль Кирби

Описание: В далеком будущем наемник Туроп из Новой Сербии получает задание отконвоировать девушку из монгольского монастыря в Нью-Йорк. Его путь лежит через Казахстан, Дальний Восток и Берингов пролив.

Качество: BDRip (720p)
Формат: MKV
Видео кодек: H.26x
Аудио кодек: DTS
Видео: 1280x544, ~4689 Kbps, 23.976 fps
Аудио#1: DTS 5.1, 48 KHz, ~1536 Kbps |rus|
Аудио#2: DTS 5.1, 48 KHz, ~1536 Kbps |eng|
Субтитры: русские, английские

Общее
Уникальный идентификатор : 183811476463090528496900434165546052429 (0x8A48CD7B6727A6F7A9A7D6A902BF6B4D)
Формат : Matroska
Версия формата : Version 1
Размер файла : 5,44 Гбайт
Продолжительность : 1 ч. 40 м.
Общий поток : 7709 Кбит/сек
Название фильма : Babylon A.D. (2008) (Extended Edition)
Дата кодирования : UTC 2009-01-29 00:05:22
Программа кодирования : mkvmerge v2.4.2 ('Oh My God') built on Jan 18 2009 17:30:28
Библиотека кодирования : libebml v0.7.7 + libmatroska v0.8.1
Attachment : Yes / Yes / Yes

Видео
Идентификатор : 1
Формат : AVC
Формат/Информация : Advanced Video Codec
Профиль формата : High@L4.1
Параметр CABAC формата : Да
Параметр ReFrames формата : 8 кадров
Идентификатор кодека : V_MPEG4/ISO/AVC
Продолжительность : 1 ч. 40 м.
Битрейт : 4689 Кбит/сек
Ширина : 1280 пикс.
Высота : 544 пикс.
Соотношение сторон : 2,35:1
Частота кадров : 23,976 кадр/сек
Цветовое пространство : YUV
Подвыборка цветности : 4:2:0
Битовая глубина : 8 бит
Тип развёртки : Прогрессивная
Бит/(Пиксели*Кадры) : 0.281
Размер потока : 3,20 Гбайт (59%)
Библиотека кодирования : x264 core 65 r1057M 5f8a149
Настройки программы : cabac=1 / ref=8 / deblock=1:-3:-3 / analyse=0x3:0x133 / me=umh / subme=9 / psy_rd=0.8:0.0 / mixed_ref=1 / me_range=24 / chroma_me=1 / trellis=2 / 8x8dct=1 / cqm=0 / deadzone=21,11 / chroma_qp_offset=-2 / threads=6 / nr=0 / decimate=0 / mbaff=0 / bframes=3 / b_pyramid=1 / b_adapt=2 / b_bias=0 / direct=1 / wpredb=1 / keyint=250 / keyint_min=25 / scenecut=40(pre) / rc=2pass / bitrate=4689 / ratetol=1.0 / qcomp=0.60 / qpmin=10 / qpmax=51 / qpstep=4 / cplxblur=20.0 / qblur=0.5 / vbv_maxrate=50000 / vbv_bufsize=50000 / ip_ratio=1.40 / pb_ratio=1.30 / aq=1:0.80
Язык : English

Аудио #1
Идентификатор : 2
Формат : DTS
Формат/Информация : Digital Theater Systems
Идентификатор кодека : A_DTS
Продолжительность : 1 ч. 40 м.
Вид битрейта : Постоянный
Битрейт : 1510 Кбит/сек
Каналы : 6 каналов
Расположение каналов : Front: L C R, Side: L R, LFE
Частота : 48,0 КГц
Битовая глубина : 24 бит
Метод сжатия : С потерями
Задержка видео : 3 с. 461 мс.
Размер потока : 1,06 Гбайт (20%)
Заголовок : DTS 5.1 1536 kbps
Язык : Russian

Аудио #2
Идентификатор : 3
Формат : DTS
Формат/Информация : Digital Theater Systems
Идентификатор кодека : A_DTS
Продолжительность : 1 ч. 40 м.
Вид битрейта : Постоянный
Битрейт : 1510 Кбит/сек
Каналы : 6 каналов
Расположение каналов : Front: L C R, Side: L R, LFE
Частота : 48,0 КГц
Битовая глубина : 24 бит
Метод сжатия : С потерями
Размер потока : 1,06 Гбайт (20%)
Заголовок : DTS 5.1 1536 kbps
Язык : English

Текст #1
Идентификатор : 4
Формат : UTF-8
Идентификатор кодека : S_TEXT/UTF8
Идентификатор кодека/Информация : UTF-8 Plain Text
Язык : Russian

Текст #2
Идентификатор : 5
Формат : ASS
Идентификатор кодека : S_TEXT/ASS
Идентификатор кодека/Информация : Advanced Sub Station Alpha
Метод сжатия : Без потерь
Язык : English
pb.wtf



Скачать Вавилон Н.Э через торрент http://i073.radikal.ru/0901/b7/2d3039d7c4ec.jpg Скачать фильм Вавилон Н.Э через торрент бесплантно в хорошем качестве Описание: В далеком будущем наемник Туроп из Новой Сербии получает задание отконвоировать девушку из монгольского монастыря в Нью-Йорк. Его ... 10 10 6
Info! Золотая раздача, скачанное не засчитывается.
Торрент: Зарегистрирован [2012-05-21 04:52] · скачан: 247 раз
Статус: √ проверено
Размер: 5.44 GB
Как cкачать? Как скачать Вавилон Н.Э через торрент | qTorrent

28-11-2019 20:33  

Отключить всю рекламу на сайте

21-05-2012 13:48 Вавилон Н.Э Скачать торрент  

что добавлено?pb.wtf



12-08-2012 01:47 Вавилон Н.Э Скачать торрент  

встаньте на раздачу!!!pb.wtf



16-12-2012 15:29 Вавилон Н.Э Скачать торрент  

На раздачу, плиз)pb.wtf



    Дорогой пользователь! Огромная просьба, поблагодарите релизера, оцените раздачу и оставьте свои комментарий, если Вы скачали Вавилон Н.Э через торрент бесплатно! Внесите свою лепту в развитие PiratBit!
    Комментировать посты могут только пользователи прошедшие не сложную регистрацию
    Показать сообщения:    

    Вавилон Н.Э через торрент
    Скачать бесплатно Вавилон Н.Э
    Вавилон Н.Э скачать торрент
    Вавилон Н.Э смотреть онлайн
    Cкачать фильм Вавилон Н.Э бесплатно
    Вавилон Н.Э скачать торрент в хорошем качестве
    Вавилон Н.Э смотреть онлайн бесплатно в хорошем качестве


    Вы не можете начинать темы
    Вы не можете отвечать на сообщения
    Вы не можете редактировать свои сообщения
    Вы не можете удалять свои сообщения
    Вы не можете голосовать в опросах
    Вы не можете прикреплять файлы к сообщениям
    Вы можете скачивать файлы