Ссылка на приватное зеркало нашего сайта всего за 1$. Внимание количество ограничено!!!

2 сезон

iTunes

1 сезон

1

2 сезон

2 сезон

iTunes

1 сезон

RePack

30

Ultimate

ВАЖНО

ИГРА 18+

pack

RePack

MK11
pack

Забери бонус

RePack

jed

!!Акция!!

Alien_Rage

RePack

fifa19

RePack

Assassins Creed: Odyssey

RePack

NEED FOR SPEED™ PAYBACK

4 сезон

9 сезон

Бесстыжие 9 сезон

Все сериалы

все сериалы на PB.wtf

RePack

FAR CRY 5
  

Анатомия Грей / Grey’s Anatomy / Сезон: 8 / Серии 01-24 (24) (Шонда Раймс) [2011, драма, WEB-DLRiр] MVO FOX Life pb.wtf

Анатомия Грей через торрент pb.wtf

Размер: 10.66 GB | Добавлен: 8 лет 5 мес. назад | Торрент скачан:1 раз
Скачать  

21-05-2012 16:30 Анатомия Грей Скачать торрент  

Анатомия Грей / Grey's Anatomy
Год выпуска: 2011
Страна: США
Жанр: драма, комедия, медицина
Продолжительность: ~00:42:00
Перевод: Профессиональный (многоголосый, закадровый) (FoxLife)
Режиссер: Шонда Раймс
В ролях: Эллен Помпео, Кэтрин Хайгл, Т.Р. Найт, Сандра О, Джастин Чэмберс, Патрик Дэмпси, Брук Смит, Сара Рамирез, Эрик Дэйнс, Джеймс Пикенс, Чэндра Уилсон
Описание: Продолжение знаменитой медицинской драмы о работе и личных отношениях хирургов сиэтлской больницы. Каждый день наполнен болью и счастьем, ссорами и примирениями, сложными дилеммами и необходимостью принять моментальное решение от которого зависит жизнь человека. В центре сюжета хирург - Мередит и её коллеги, такие же начинающие врачи, как она. Хирурги оперируют и влюбляются, заводят истории болезни и служебные романы, хранят свои врачебные тайны, борются с осложнениями у пациентов и в собственной личной жизни.
В Анатомии Грей великолепный сюжет, замечательный саундтрек, хороший юмор и интересные высказывания в начале и конце серий.
Качество: WEB-DLRip
Формат: AVI
Видео кодек: XviD
Аудио кодек: MP3
Видео: 624х352 (16:9), 23.976 fps, 1200 Кбит/сек, ~0.228 bit/pixel
Аудио Rus: MP3 , 2.0, 48 kHz, 128 kbps
Аудио Eng: MP3 , 2.0, 48 kHz, 128 kbps
Общее
Полное имя : F:\Раздачи\Раздачи\Greys Anatomy 8 FOX Life\Greys Anatomy 08-01 FOX Life.avi
Формат : AVI
Формат/Информация : Audio Video Interleave
Размер файла : 454 Мбайт
Продолжительность : 43 м.
Общий поток : 1470 Кбит/сек
Программа кодирования : VirtualDubModRus 1.5.10.2 (build 2540/release)
Библиотека кодирования : VirtualDubMod build 2540/release

Видео
Идентификатор : 0
Формат : MPEG-4 Visual
Профиль формата : Advanced Simple@L5
Параметр BVOP формата : 1
Параметр QPel формата : Нет
Параметр GMC формата : Без точки перехода
Параметр матрицы формата : Выборочная
Идентификатор кодека : XVID
Идентификатор кодека/Подсказка : XviD
Продолжительность : 43 м.
Битрейт : 1200 Кбит/сек
Ширина : 624 пикселя
Высота : 352 пикселя
Соотношение сторон : 16:9
Частота кадров : 23,976 кадра/сек
Цветовое пространство : YUV
Субдискретизация насыщенности : 4:2:0
Битовая глубина : 8 бит
Тип развёртки : Прогрессивная
Метод сжатия : С потерями
Бит/(Пиксели*Кадры) : 0.228
Размер потока : 371 Мбайт (82%)
Библиотека кодирования : XviD 1.2.1 (UTC 2008-12-04)

Аудио #1
Идентификатор : 1
Формат : MPEG Audio
Версия формата : Version 1
Профиль формата : Layer 3
Режим : Joint stereo
Расширение режима : MS Stereo
Идентификатор кодека : 55
Идентификатор кодека/Подсказка : MP3
Продолжительность : 43 м.
Вид битрейта : Постоянный
Битрейт : 128 Кбит/сек
Каналы : 2 канала
Частота : 48,0 КГц
Метод сжатия : С потерями
Размер потока : 39,6 Мбайт (9%)
Выравнивание : Разделение по промежуткам
Продолжительность промежутка : 42 мс. (1,00 видеокадр)
Время предзагрузки промежутка : 500 мс.

Аудио #2
Идентификатор : 2
Формат : MPEG Audio
Версия формата : Version 1
Профиль формата : Layer 3
Режим : Joint stereo
Расширение режима : MS Stereo
Идентификатор кодека : 55
Идентификатор кодека/Подсказка : MP3
Продолжительность : 43 м.
Вид битрейта : Постоянный
Битрейт : 128 Кбит/сек
Каналы : 2 канала
Частота : 48,0 КГц
Метод сжатия : С потерями
Размер потока : 39,6 Мбайт (9%)
Выравнивание : Соединение по промежуткам
Продолжительность промежутка : 42 мс. (1,00 видеокадр)
Время предзагрузки промежутка : 504 мс.
Библиотека кодирования : LAME3.98r
Настройки программы : -m j -V 4 -q 2 -lowpass 17 -b 128

Внимание! Раздача ведётся путём добавления новых серий; при каждом добавлении создётся новый торрент. Чтобы начать докачку новой серии, пользователям необходимо сделать следующее:
(1) остановить скачивание,
(2) удалить старый торрент у себя из клиента (старые серии удалять не надо),
(3) скачать новый торрент и запустить его у себя в клиенте вместо старого, при этом указать клиенту путь в старую папку куда и должно происходить скачивание новых серий.

Ваш клиент при этом должен произвести хеширование (проверку) старой папки (если не производит сам - помогите ему сделать это), и будет докачивать только те серии которых у вас ещё нет. Старые серии при этом не удаляются, а продолжают раздаваться!

Eсли вы уже удалили старые серии, то предотвратить повторную закачку старых серий можно, отжав галочку в соответсвующих местах при запуске нового торрента. По возможности, желательно не удалять старые серии как можно дольше чтобы релизёр не столько продолжал раздавать старые серии, а смог сконцентрироваться на новых.
pb.wtf



Скачать Анатомия Грей через торрент http://pic.kartinco.top/images/2011/ddqvdrwdj9.jpg Скачать фильм Анатомия Грей через торрент бесплантно в хорошем качестве Описание: Продолжение знаменитой медицинской драмы о работе и личных отношениях хирургов сиэтлской больницы. Каждый день наполнен болью и ... 5 10 1
Info! Золотая раздача, скачанное не засчитывается.
Торрент: Зарегистрирован [2012-06-16 11:42] · скачан: 1 раз
Статус: √ проверено
Размер: 10.66 GB
Как cкачать? Как скачать Анатомия Грей через торрент | qTorrent

% Раздел Тема Автор DL S | L
Зарубежные сериалы [ 33.78 GB ] Анатомия Грей / Анатомия страсти / Grey's Anatomy / Сезон: 8 / Серии: 1-24 [2011-2012 медицина WEB-DL 720p] MVO [FOX Life] + Orignal Messa-fan Скачать
1 | 0


Последний раз редактировалось: wekotila (2012-06-16 11:42), всего редактировалось 2 раз(а)

28-11-2019 20:33  

Отключить всю рекламу на сайте

29-05-2012 14:24 Анатомия Грей Скачать торрент  

Добавлена 21 серия!pb.wtf



07-06-2012 14:26 Анатомия Грей Скачать торрент  

Добавлена 22 серия!pb.wtf



16-06-2012 11:42 Анатомия Грей Скачать торрент  

Добавлены заключительные серии!pb.wtf



    Дорогой пользователь! Огромная просьба, поблагодарите релизера, оцените раздачу и оставьте свои комментарий, если Вы скачали Анатомия Грей через торрент бесплатно! Внесите свою лепту в развитие PiratBit!
    Комментировать посты могут только пользователи прошедшие не сложную регистрацию
    Показать сообщения:    

    Анатомия Грей через торрент
    Скачать бесплатно Анатомия Грей
    Анатомия Грей скачать торрент
    Анатомия Грей смотреть онлайн
    Cкачать фильм Анатомия Грей бесплатно
    Анатомия Грей скачать торрент в хорошем качестве
    Анатомия Грей смотреть онлайн бесплатно в хорошем качестве


    Вы не можете начинать темы
    Вы не можете отвечать на сообщения
    Вы не можете редактировать свои сообщения
    Вы не можете удалять свои сообщения
    Вы не можете голосовать в опросах
    Вы не можете прикреплять файлы к сообщениям
    Вы можете скачивать файлы