2 сезон

iTunes

MVO

1

2 сезон

iTunes

iTunes

1 сезон

RePack

30

Новинка

ВАЖНО

ИГРА 18+

pack

RePack

MK11
pack

Легкие деньги

RePack

jed

RePack

fifa19

RePack

RDR2

RePack

NEED FOR SPEED™ PAYBACK

4 сезон

9 сезон

Бесстыжие 9 сезон

Все сериалы

все сериалы на PB.wtf

RePack

FAR CRY 5

Anonymous, добрый вечер, мы не успеваем собрать деньги на оплату серверов за декабрь и январь, помогите нам пожалуйста в это трудное время. В качестве благодарности мы отключим Вам всю рекламу на сайте (укажите свой ник в строку Ваше имя)!

×
  
Magnet ссылка

[ShemaleStrokers] TS Michelle (Is Ready For You To Worship Her!) [21.05.2012 г., Shemale, Solo, Masturbation, SiteRip] pb.wtf

через торрент pb.wtf

Размер: 307 MB | Добавлен: 8 лет 7 мес. назад | Торрент скачан:31 раз
Скачать  

22-05-2012 12:24 Скачать торрент  


[ShemaleStrokers.com]
TS Michelle
Is Ready For You To Worship Her!
[21.05.2012г.]

Год производства: 2012 г.
Жанр: Shemale, Solo, Masturbation
Продолжительность: 00:24:26

Студия: ShemaleStrokers.com
В ролях: TS Michelle

Качество видео: SiteRip
Формат видео: WMV
Видео кодек: Windows Media
Аудио кодек: WMA
Видео: 29.970 fps, 1 600 Kbps, 640x480
Аудио: 128 kbps, 44 kHz, stereo CBR

Описание:
Hi, I'm Michelle. I'm a New York beautiful and very passable TS.
In fact, no one believes I'm not a real girl until they seem my huge uncut 10 inch cock.
I look sweet and innocent, but I'm actually very dominant,
and if you want to get with me, you'd better be prepared to do what I like,
and I especially like guys to worhsip my pretty perky tits, nice round ass, and big long dick.

General
Complete name : TS Michelle Is Ready For You To Worship Her!.wmv
Format : Windows Media
File size : 307 MiB
Duration : 24mn 26s
Overall bit rate : 1 758 Kbps
Maximum Overall bit rate : 1 721 Kbps
Encoded date : UTC 2012-05-21 16:07:09.000

Video
ID : 1
Format : VC-1
Format profile : Main
Codec ID : WMV3
Codec ID/Info : Windows Media Video 9
Codec ID/Hint : WMV3
Description of the codec : Windows Media Video 9 - 2-pass VBR
Duration : 24mn 26s
Bit rate : 1 600 Kbps
Width : 640 pixels
Height : 480 pixels
Display aspect ratio : 4:3
Frame rate : 29.970 fps
Bit depth : 8 bits
Scan type : Progressive
Compression mode : Lossy
Bits/(Pixel*Frame) : 0.174
Stream size : 280 MiB (91%)

Audio
ID : 2
Format : WMA
Format version : Version 2
Codec ID : 161
Codec ID/Info : Windows Media Audio
Description of the codec : Windows Media Audio 9 - 128 kbps, 44 kHz, stereo CBR
Duration : 24mn 26s
Bit rate : 128 Kbps
Channel(s) : 2 channels
Sampling rate : 44.1 KHz
Bit depth : 16 bits
Stream size : 22.4 MiB (7%)
pb.wtf



pack Скачать через торрент http://i38.fastpic.ru/big/2012/0522/55/8bdf6a9aaeca76b688063771e8f9cd55.jpg Скачать фильм [ShemaleStrokers] TS Michelle через торрент бесплантно в хорошем качестве Описание:Hi, I'm Michelle. I'm a New York beautiful and very passable TS.In fact, no one believes I'm not a real girl until they seem my ... 8 10 1
Info! Золотая раздача, скачанное не засчитывается.
Торрент: Зарегистрирован [2012-05-22 12:24] · скачан: 31 раз
Статус: √ проверено
Размер: 307 MB
Как cкачать? Как скачать через торрент | UTorrent

28-11-2019 20:33  

Отключить всю рекламу на сайте

    Дорогой пользователь! Огромная просьба, поблагодарите релизера, оцените раздачу и оставьте свои комментарий, если Вы скачали через торрент бесплатно! Внесите свою лепту в развитие PiratBit!
    Комментировать посты могут только пользователи прошедшие не сложную регистрацию
    Показать сообщения:    

    через торрент
    Скачать бесплатно
    скачать торрент
    смотреть онлайн
    Cкачать фильм бесплатно
    скачать торрент в хорошем качестве
    смотреть онлайн бесплатно в хорошем качестве


    Вы не можете начинать темы
    Вы не можете отвечать на сообщения
    Вы не можете редактировать свои сообщения
    Вы не можете удалять свои сообщения
    Вы не можете голосовать в опросах
    Вы не можете прикреплять файлы к сообщениям
    Вы можете скачивать файлы