2 сезон

iTunes

MVO

1

2 сезон

iTunes

iTunes

1 сезон

RePack

30

Ultimate

ВАЖНО

ИГРА 18+

pack

RePack

MK11
pack

Легкие деньги

RePack

jed

RePack

fifa19

RePack

RDR2

RePack

NEED FOR SPEED™ PAYBACK

4 сезон

9 сезон

Бесстыжие 9 сезон

Все сериалы

все сериалы на PB.wtf

RePack

FAR CRY 5

Anonymous, доброй ночи, мы не успеваем собрать деньги на оплату серверов за декабрь и январь, помогите нам пожалуйста в это трудное время. В качестве благодарности мы отключим Вам всю рекламу на сайте (укажите свой ник в строку Ваше имя)!

×
  
Magnet ссылка

Джoн Кaртер в 3Д / Jоhn Cаrter 3D (Эндрю Стэнтон / Andrew Stanton) [2012 г., Фантастика, Фэнтези, Боевик, Приключения, BDRip 1080p, Профессиональный (многоголосый)] / Анаглиф red-cyan pb.wtf

Джoн Кaртер в 3Д через торрент pb.wtf

Качают: 1 [ 0 KB/s ]
Размер: 11.26 GB | Добавлен: 8 лет 7 мес. назад | Торрент скачан:686 раз
Скачать  

23-05-2012 06:08 Джoн Кaртер в 3Д Скачать торрент  

Джoн Кaртер в 3Д / Jоhn Cаrter 3D

Год выпуска: 2012
Страна: США
Жанр: Фантастика, Фэнтези, Боевик, Приключения
Продолжительность: 02:11:59
Перевод:Русский (Профессиональный (дублированный)

Режиссер: Эндрю Стэнтон / Andrew Stanton
Продюссер: Линдси Коллинз, Джим Моррис, Колин Уилсон, ...
Сценарий: Эндрю Стэнтон, Марк Эндрюс, Майкл Чабон, ...

Бюджет: $250 000 000
Премьера в мире: 22 февраля 2012

В ролях: Тейлор Китч, Линн Коллинз, Саманта Мортон, Уиллем Дефо, Томас Хейден Чёрч, Марк Стронг, Кирен Хайдз, Доминик Уэст, Джеймс Пьюрфой, Брайан Крэнстон, Полли Уокер, Дэрил Сабара...

Роли дублировали: Олег Фёдоров, Марианна Коробейникова, Лилиан Наврозашвили, Юрий Лазарев, Андрей Пирог, Александр Аравушкин, Аркадий Волгин, Александр Ноткин, Сергей Дьячков, Анатолий Дубанов, Руслан Мещанов

Описание: Ветеран Гражданской войны в США Джон Картер против своей воли оказывается на Марсе, где попадает в плен к воинственным четырехметровым туземцам. Картеру предстоит не только спастись самому, но и спасти принцессу Дею Торис из Гелиума.

Доп. информация: Внимание!:Для просмотра 3D требуются анаглифные очки (красно-синезеленые)


Скачать сэмпл http://www.sendspace.com/file/twu6g4

Формат 3D: Анаглиф red-cyan
Качество: BDRip 1080p
Формат: MKV
Видео кодек: AVC
Аудио кодек: AC3
Видео: AVC / 23,976 fps / 1920х1080 / 10.0 Mbps
Аудио#1: Русский / AC3 / 48 KHz / 5.1 ch / 640 Kbps (Дублированный)
Аудио#2: Украинский / AC3 / 48 KHz / 5.1 ch / 640 Kbps
Аудио#3: Английский / AC3 / 48 KHz / 5.1 ch / 640 Kbps
General
Unique ID : 182994197834280002130228650968609139789 (0x89AB6688DC21A99898D0096A17872C4D)
Complete name : J:\Фильмы\3Д\JohnCarter.mkv
Format : Matroska
Format version : Version 2
File size : 11.3 GiB
Duration : 2h 12mn
Overall bit rate : 12.2 Mbps
Encoded date : UTC 2012-06-09 08:27:15
Writing application : mkvmerge v5.4.0 ('Piper') built on Mar 10 2012 13:34:39
Writing library : libebml v1.2.3 + libmatroska v1.3.0

Video
ID : 1
Format : AVC
Format/Info : Advanced Video Codec
Format profile : High@L4.1
Format settings, CABAC : Yes
Format settings, ReFrames : 4 frames
Muxing mode : Header stripping
Codec ID : V_MPEG4/ISO/AVC
Duration : 2h 12mn
Bit rate : 10.0 Mbps
Width : 1 920 pixels
Height : 1 080 pixels
Display aspect ratio : 16:9
Frame rate : 23.976 fps
Color space : YUV
Chroma subsampling : 4:2:0
Bit depth : 8 bits
Scan type : Progressive
Bits/(Pixel*Frame) : 0.202
Stream size : 9.27 GiB (82%)
Writing library : x264 core 125 r2200 999b753
Encoding settings : cabac=1 / ref=4 / deblock=1:-1:-1 / analyse=0x3:0x113 / me=hex / subme=7 / psy=1 / psy_rd=1.00:0.15 / mixed_ref=1 / me_range=16 / chroma_me=1 / trellis=2 / 8x8dct=1 / cqm=0 / deadzone=21,11 / fast_pskip=1 / chroma_qp_offset=-3 / threads=9 / lookahead_threads=1 / sliced_threads=0 / nr=0 / decimate=1 / interlaced=0 / bluray_compat=0 / constrained_intra=0 / bframes=6 / b_pyramid=2 / b_adapt=1 / b_bias=0 / direct=1 / weightb=1 / open_gop=0 / weightp=2 / keyint=250 / keyint_min=23 / scenecut=40 / intra_refresh=0 / rc_lookahead=60 / rc=crf / mbtree=1 / crf=18.0 / qcomp=0.60 / qpmin=0 / qpmax=69 / qpstep=4 / ip_ratio=1.40 / aq=1:1.00
Language : English
Default : Yes
Forced : No

Audio #1
ID : 2
Format : AC-3
Format/Info : Audio Coding 3
Mode extension : CM (complete main)
Format settings, Endianness : Big
Muxing mode : Header stripping
Codec ID : A_AC3
Duration : 2h 12mn
Bit rate mode : Constant
Bit rate : 640 Kbps
Channel(s) : 6 channels
Channel positions : Front: L C R, Side: L R, LFE
Sampling rate : 48.0 KHz
Bit depth : 16 bits
Compression mode : Lossy
Stream size : 604 MiB (5%)
Language : Russian
Default : Yes
Forced : No

Audio #2
ID : 3
Format : AC-3
Format/Info : Audio Coding 3
Mode extension : CM (complete main)
Format settings, Endianness : Big
Muxing mode : Header stripping
Codec ID : A_AC3
Duration : 2h 12mn
Bit rate mode : Constant
Bit rate : 640 Kbps
Channel(s) : 6 channels
Channel positions : Front: L C R, Side: L R, LFE
Sampling rate : 48.0 KHz
Bit depth : 16 bits
Compression mode : Lossy
Stream size : 604 MiB (5%)
Language : Ukrainian
Default : No
Forced : No

Audio #3
ID : 4
Format : AC-3
Format/Info : Audio Coding 3
Mode extension : CM (complete main)
Format settings, Endianness : Big
Muxing mode : Header stripping
Codec ID : A_AC3
Duration : 2h 12mn
Bit rate mode : Constant
Bit rate : 640 Kbps
Channel(s) : 6 channels
Channel positions : Front: L C R, Side: L R, LFE
Sampling rate : 48.0 KHz
Bit depth : 16 bits
Compression mode : Lossy
Stream size : 604 MiB (5%)
Language : English
Default : No
Forced : No

Forced : No

pb.wtf



Скачать Джoн Кaртер в 3Д через торрент http://i38.fastpic.ru/big/2012/0522/10/cf7d65eae02ebec1b442d6df177c1010.jpg Скачать фильм Джoн Кaртер в 3Д через торрент бесплантно в хорошем качестве Описание: Ветеран Гражданской войны в США Джон Картер против своей воли оказывается на Марсе, где попадает в плен к воинственным ... 9.6 10 8
Info! Золотая раздача, скачанное не засчитывается.
Торрент: Зарегистрирован [2012-06-10 11:58] · скачан: 686 раз
Статус: √ проверено
Размер: 11.26 GB
Как cкачать? Как скачать Джoн Кaртер в 3Д через торрент | UTorrent



Последний раз редактировалось: serega768 (2012-06-10 12:28), всего редактировалось 9 раз(а)

28-11-2019 20:33  

Отключить всю рекламу на сайте

23-05-2012 09:18 Джoн Кaртер в 3Д Скачать торрент  

serega768

Выложите Сэмпл.


Как сделать сэмпл видео pb.wtf



09-06-2012 19:55 Джoн Кaртер в 3Д Скачать торрент  

09.06.12 Файл заменен на BDrip 1920х1080 качество улучшелось. Перекачайте заново торрентpb.wtf





Последний раз редактировалось: serega768 (2012-06-10 13:10), всего редактировалось 1 раз

10-06-2012 09:20 Джoн Кaртер в 3Д Скачать торрент  

А где кнопка скачать торрент?pb.wtf



14-06-2012 17:23 Джoн Кaртер в 3Д Скачать торрент  

Когда ждать вертикальную стереопару?pb.wtf



14-06-2012 19:19 Джoн Кaртер в 3Д Скачать торрент  

NickTim писал(а):

Когда ждать вертикальную стереопару?

Уже удалил блюрик pb.wtf



15-06-2012 19:16 Джoн Кaртер в 3Д Скачать торрент  

serega768 писал(а):

NickTim писал(а):

Когда ждать вертикальную стереопару?

Уже удалил блюрик

pb.wtf



10-07-2013 04:15 Джoн Кaртер в 3Д Скачать торрент  

ребята, а раздавать будете или сами посмотрели и здорово! pb.wtf



10-07-2013 12:13 Джoн Кaртер в 3Д Скачать торрент  

сношу,буду другой качать, этот до нового года не доползет.....pb.wtf



    Дорогой пользователь! Огромная просьба, поблагодарите релизера, оцените раздачу и оставьте свои комментарий, если Вы скачали Джoн Кaртер в 3Д через торрент бесплатно! Внесите свою лепту в развитие PiratBit!
    Комментировать посты могут только пользователи прошедшие не сложную регистрацию
    Показать сообщения:    

    Джoн Кaртер в 3Д через торрент
    Скачать бесплатно Джoн Кaртер в 3Д
    Джoн Кaртер в 3Д скачать торрент
    Джoн Кaртер в 3Д смотреть онлайн
    Cкачать фильм Джoн Кaртер в 3Д бесплатно
    Джoн Кaртер в 3Д скачать торрент в хорошем качестве
    Джoн Кaртер в 3Д смотреть онлайн бесплатно в хорошем качестве


    Вы не можете начинать темы
    Вы не можете отвечать на сообщения
    Вы не можете редактировать свои сообщения
    Вы не можете удалять свои сообщения
    Вы не можете голосовать в опросах
    Вы не можете прикреплять файлы к сообщениям
    Вы можете скачивать файлы