новый адрес
Ссылка на приватное зеркало всего за 1$. Внимание количество ограничено!!!

iTunes

1+1

iTunes

мы

WEB-DL

1

iTunes

Чернобыль

iTunes

Ральф против интернета

Лицензия

ПШазам

Лицензия

Оно 2

Лицензия

30
pack

Вам бонус

ВАЖНО

!!Акция!!

Alien_RageХит недели

RePack

Resident Evil 21

ИГРА 18+

pack

RePack

jed

!!Акция!!

Alien_Rage

RePack

fifa19

RePack

Assassins Creed: Odyssey

RePack

NEED FOR SPEED™ PAYBACK

3 сезон

9 сезон

Бесстыжие 9 сезон

Все сериалы

все сериалы на PB.wtf

RePack

FAR CRY 5
Ребята, катастрофически не хватает 1900р. для оплаты серверов за Октябрь (всвязи с блокировками трафик упал в 3 раза), 1-2р., выручайте.
  

Шпион (Алексей Андрианов) [2012 г., триллер, детектив, приключения, BDRip (720p), Оригинал [ лицензия ]] pb.wtf

Шпион через торрент pb.wtf

Размер: 5.73 GB | Добавлен: 7 лет 6 мес. назад | Торрент скачан:217 раз
Скачать  

23-05-2012 10:02 Шпион Скачать торрент  


Шпион
«Остановить неизбежное»

Год выпуска: 2012
Страна: Россия, Канал Россия / Студия Трит
Жанр: триллер, детектив, приключения
Продолжительность: 01:49:23
Перевод: Оригинал [лицензия]

Режиссер: Алексей Андрианов

В ролях: Данила Козловский, Фёдор Бондарчук, Владимир Епифанцев, Сергей Газаров, Виктор Вержбицкий, Виктория Толстоганова, Анна Чиповская, Алексей Горбунов, Алексей Гаврилов, Екатерина Мельник

Описание: Весна 1941 года. В центре Москвы разворачивается напряжённый поединок двух разведок. Цель тайной операции Гитлера — дезинформировать Сталина о планах нападения Германии на Советский Союз. Старший майор Октябрьский и лейтенант Дорин против гения фашистского шпионажа. Схватка на фоне большой истории, освещенной заревом грядущей войны.

Качество: BDRip (720p)
Формат: MKV
Видео кодек:AVC
Аудио кодек: AC3
Видео: AVC, 1280x544 (2.35:1), 23.976 fps, 6 860 Kbps (0.411 bit/pixel)
Аудио: AC-3, 48.0 KHz, 6 ch, 640 Kbps, CBR (Russian)

General
Unique ID : 249406758727632658368309846422734846026 (0xBBA1FE9754745D10BCC6B826B109384A)
Complete name : D:\Shpion.2012.O.BDRip.720p.[Uniongang.tv].mkv
Format : Matroska
File size : 5.73 GiB
Duration : 1h 49mn
Overall bit rate : 7 489 Kbps
Movie name : Shpion.2012.O.BDRip.720p.Uniongang.tv by Prov1zoR
Encoded date : UTC 2012-05-23 07:11:00
Writing application : mkvmerge v5.3.0 ('I could have danced') built on Feb 9 2012 10:38:07
Writing library : libebml v1.2.3 + libmatroska v1.3.0

Video
ID : 1
Format : AVC
Format/Info : Advanced Video Codec
Format profile : High@L4.1
Format settings, CABAC : Yes
Format settings, ReFrames : 9 frames
Codec ID : V_MPEG4/ISO/AVC
Duration : 1h 49mn
Bit rate : 6 860 Kbps
Width : 1 280 pixels
Height : 544 pixels
Display aspect ratio : 2.35:1
Frame rate : 23.976 fps
Color space : YUV
Chroma subsampling : 4:2:0
Bit depth : 8 bits
Scan type : Progressive
Bits/(Pixel*Frame) : 0.411
Stream size : 5.13 GiB (89%)
Title : Shpion.2012.O.BDRip.720p.Uniongang.tv by Prov1zoR
Writing library : x264 core 119 r2106 07efeb4
Encoding settings : cabac=1 / ref=9 / deblock=1:-3:-3 / analyse=0x3:0x113 / me=umh / subme=11 / psy=1 / psy_rd=1.10:1.00 / mixed_ref=1 / me_range=32 / chroma_me=1 / trellis=2 / 8x8dct=1 / cqm=0 / deadzone=21,11 / fast_pskip=0 / chroma_qp_offset=-4 / threads=6 / sliced_threads=0 / nr=0 / decimate=1 / interlaced=0 / bluray_compat=0 / constrained_intra=0 / bframes=7 / b_pyramid=2 / b_adapt=2 / b_bias=0 / direct=3 / weightb=1 / open_gop=0 / weightp=2 / keyint=250 / keyint_min=23 / scenecut=40 / intra_refresh=0 / rc=2pass / mbtree=0 / bitrate=6860 / ratetol=1.0 / qcomp=0.60 / qpmin=0 / qpmax=69 / qpstep=4 / cplxblur=20.0 / qblur=0.5 / ip_ratio=1.40 / pb_ratio=1.30 / aq=1:1.00
Language : Russian

Audio
ID : 2
Format : AC-3
Format/Info : Audio Coding 3
Mode extension : CM (complete main)
Codec ID : A_AC3
Duration : 1h 49mn
Bit rate mode : Constant
Bit rate : 640 Kbps
Channel(s) : 6 channels
Channel positions : Front: L C R, Side: L R, LFE
Sampling rate : 48.0 KHz
Bit depth : 16 bits
Compression mode : Lossy
Stream size : 502 MiB (9%)
Title : AC3
Language : Russian

Menu
00:00:00.000 : ru:00:00:00.000
00:10:22.038 : ru:00:10:22.038
00:20:24.723 : ru:00:20:24.723
00:30:24.823 : ru:00:30:24.823
00:41:08.966 : ru:00:41:08.966
00:52:50.376 : ru:00:52:50.376
01:02:55.397 : ru:01:02:55.397
01:12:49.907 : ru:01:12:49.907
01:24:32.401 : ru:01:24:32.401
01:34:46.347 : ru:01:34:46.347
01:45:11.931 : ru:01:45:11.931

pb.wtf



Скачать Шпион через торрент http://lostpic.net/images/43c3929c7686e6351020894245213508.png Скачать фильм Шпион через торрент бесплантно в хорошем качестве Описание: Весна 1941 года. В центре Москвы разворачивается напряжённый поединок двух разведок. Цель тайной операции Гитлера — ... 10 10 6
Info! Золотая раздача, скачанное не засчитывается.
Торрент: Зарегистрирован [2012-05-23 10:02] · скачан: 217 раз
Статус: √ проверено
Размер: 5.73 GB
Как cкачать? Как скачать Шпион через торрент | qTorrent

% Раздел Тема Автор DL S | L
Фильмы без перевода [ 22.15 GB ] Полтора шпиона / Central Intelligence [2016 BD Remux] [Оригинал] smaster Скачать
1 | 0
Наши фильмы (HD, WEB-DL 720p, 1080p) [ 3.16 GB ] Душа шпиона [2015 HDTVRip 720p [Оригинал] smaster Скачать
1 | 0
Документальные фильмы и телепередачи [ 1.29 GB ] Группа "А". Охота на шпионов [2015 документальный HDTVRip 720p Оригинал] кэп Скачать
1 | 0
Порно фильмы с сюжетом [ 699 MB ] Продажные секс-шпионки / Espionnes au Sexe d'Argent [2006 Feature Couples Vignettes PornStars Double Penetration DVDRip Оригинал] sheker187 Скачать
1 | 0
Порно фильмы с сюжетом [ 1.28 GB ] Секс-шпионаж: Хроники Drake / Sexpionage: The Drake Chronicles [2013 Feature Movies Couples Porn Stars DVDRip-AVC Оригинал] sheker187 Скачать
1 | 0
Наши сериалы [ 2.61 GB ] Смерть шпионам. Скрытый враг / Сезон: 3 Серии: 4 из 4 [2012 военный фильм SATRip Оригинал] wekotila Скачать
1 | 0
Порно фильмы с сюжетом [ 1.43 GB ] Секс-шпионаж / Sexpionage [2013 Feature. WEB-DLRip Оригинал] Pir@tya2010 Скачать
1 | 0

28-11-2019 20:33  

Отключить всю рекламу на сайте

23-05-2012 10:20 Шпион Скачать торрент  

норм так фильм)pb.wtf



23-05-2012 11:25 Шпион Скачать торрент  

спасиб забираюpb.wtf



23-05-2012 11:55 Шпион Скачать торрент  

Большое спасибо)pb.wtf



23-05-2012 13:04 Шпион Скачать торрент  

если надо выложу 1080pb.wtf



    Дорогой пользователь! Огромная просьба, поблагодарите релизера, оцените раздачу и оставьте свои комментарий, если Вы скачали Шпион через торрент бесплатно! Внесите свою лепту в развитие PiratBit!
    Комментировать посты могут только пользователи прошедшие не сложную регистрацию
    Показать сообщения:    

    Шпион через торрент
    Скачать бесплатно Шпион
    Шпион скачать торрент
    Шпион смотреть онлайн
    Cкачать фильм Шпион бесплатно
    Шпион скачать торрент в хорошем качестве
    Шпион смотреть онлайн бесплатно в хорошем качестве


    Вы не можете начинать темы
    Вы не можете отвечать на сообщения
    Вы не можете редактировать свои сообщения
    Вы не можете удалять свои сообщения
    Вы не можете голосовать в опросах
    Вы не можете прикреплять файлы к сообщениям
    Вы можете скачивать файлы