1 сезон

3 сезон

iTunes

1

iTunes

MVO

iTunes

13

1 сезон

RePack

30

Deluxe

pack

Лицензия

ВАЖНО

ИГРА 18+

pack

RePack

MK11

RePack

jed

RePack

fifa19

RePack

RDR2

RePack

NEED FOR SPEED™ PAYBACK

4 сезон

9 сезон

Бесстыжие 9 сезон

Все сериалы

все сериалы на PB.wtf

RePack

FAR CRY 5

Anonymous, доброй ночи, мы катастрофически не успеваем собрать деньги на оплату серверов, помогите нам пожалуйста 5,10,15р., для нас важна любая помощь . В качестве благодарности мы отключим Вам всю рекламу на сайте (укажите свой ник в строку Ваше имя)!

×
  
Magnet ссылка

Охотник / The Hunter (Дэниэл Неттхейм / Daniel Nettheim) [2011, драма, приключения, DVD9] R5 pb.wtf

Охотник через торрент pb.wtf

Размер: 6.44 GB | Добавлен: 9 лет 2 мес. назад | Торрент скачан:78 раз
Скачать  

23-05-2012 13:03 Охотник Скачать торрент  


Охотник / The Hunter
«Some Mysteries Should Never Be Solved»
Страна: Австралия
Студия: Fulcrum Media Finance, Madman Entertainment, Porchlight Films Pty. Ltd., Screen Australia, Screen NSW, Screen Tasmania
Жанр: драма, приключения
Год выпуска: 2011
Мировая премьера: 9 сентября 2011
Российская премьера: 10 мая 2012
Дата выхода DVD: 23 мая 2012
Продолжительность: 01:44:14
Перевод: Профессиональный (многоголосый закадровый) [Лицензия]
Cубтитры: русские
Оригинальная аудиодорожка: английский
Режиссер: Дэниэл Неттхейм / Daniel Nettheim
В ролях: Уиллем Дефо, Сэм Нил, Фрэнсис О’Коннор, Салливан Степлтон, Моргана Дейвис, Каллэн Мулвей, Яцек Коман, Дэниэл Уилли, Джон Брамптон, Джэйми Тимони
Описание: Мартин — охотник-одиночка. У него нет друзей и семьи. Он берется за самые рискованные и опасные задания — ведь ему нечего терять.
В поисках легкого заработка по контракту с загадочной биотехнологической компанией он отправляется в дикие земли Тасмании. Его задача — отыскать и убить последнего Австралийского Тигра, который уже несколько лет считается полностью истребленным. Прибыв на место, Мартин селится у Люси — странной и одинокой красивой женщины, которая скорбит по мужу, исчезнувшему в тасманской глуши при крайне загадочных обстоятельствах.

Бонусы: Трейлер, новинки

Релиз группы:
Качество: DVD9 R5
Формат: DVD-Video
Видео кодек: MPEG2
Аудио кодек: AC3
Видео: PAL 16:9 (720x576(0.723)) MPEG Video, 25,000 кадр/сек, 7500 Кбит/сек
Аудио #1: Russian (Dolby AC3, 6 ch) 448 Кбит/сек, 48,0 КГц
Аудио #2: Russian (Dolby AC3, 2 ch) 192 Кбит/сек, 48,0 КГц
Аудио #3: English (Dolby AC3, 6 ch) 384 Кбит/сек, 48,0 КГц



Title:
Size: 6.44 Gb ( 6 757 090 KBytes ) - DVD-9
Enabled regions: 1, 2, 3, 4, 5, 6, 7, 8

VTS_01 :
Play Length: 01:37:31
Video: PAL 16:9 (720x576) VBR, Auto Pan&Scan
Audio:
Russian (Dolby AC3, 6 ch)
Russian (Dolby AC3, 2 ch)
English (Dolby AC3, 6 ch)
Subtitles:
Russian

VTS_02 :
Play Length: 00:00:05+00:00:13
Video: PAL 16:9 (720x576) VBR, Auto Pan&Scan
Audio:
Russian (Dolby AC3, 6 ch)

VTS_03 :
Play Length: 00:03:20
Video: PAL 16:9 (720x576) VBR, Auto Pan&Scan
Audio:
Russian (Dolby AC3, 2 ch)

VTS_04 :
Play Length: 00:02:09+00:03:26
Video: PAL 16:9 (720x576) VBR, Auto Pan&Scan
Audio:
Russian (Dolby AC3, 2 ch)

Menu Video:
PAL 4:3 (720x576) VBR
Auto Pan&Scan, Auto Letterboxed
Menu Russian Language Unit :
Root Menu
Angle menu
Общее
Полное имя : J:\Новинки 2012\Ohotnik.2011.DVD9\VIDEO_TS\VTS_01_2.VOB
Формат : MPEG-PS
Размер файла : 1024 Мбайт
Продолжительность : 16 м.
Общий поток : 8669 Кбит/сек

Видео
Идентификатор : 224 (0xE0)
Формат : MPEG Video
Версия формата : Version 2
Профиль формата : Main@Main
Параметр BVOP формата : Да
Параметр матрицы формата : Выборочная
Параметр GOP формата : M=3, N=15
Продолжительность : 16 м.
Битрейт : 7500 Кбит/сек
Ширина : 720 пикселей
Высота : 576 пикселей
Соотношение сторон : 16:9
Частота кадров : 25,000 кадров/сек
Стандарт вещания : PAL
Цветовое пространство : YUV
Субдискретизация насыщенности : 4:2:0
Битовая глубина : 8 бит
Тип развёртки : Чересстрочная
Порядок развёртки : Верхнее поле первое
Метод сжатия : С потерями
Бит/(Пиксели*Кадры) : 0.723
Размер потока : 882 Мбайт (86%)

Аудио #1
Идентификатор : 189 (0xBD)-128 (0x80)
Формат : AC-3
Формат/Информация : Audio Coding 3
Расширение режима : CM (complete main)
Параметр Endianness формата : Big
Режим смешивания : DVD-Video
Продолжительность : 16 м.
Вид битрейта : Постоянный
Битрейт : 448 Кбит/сек
Каналы : 6 каналов
Расположение каналов : Front: L C R, Side: L R, LFE
Частота : 48,0 КГц
Битовая глубина : 16 бит
Метод сжатия : С потерями
Задержка видео : -464 мс.
Размер потока : 52,9 Мбайт (5%)

Аудио #2
Идентификатор : 189 (0xBD)-129 (0x81)
Формат : AC-3
Формат/Информация : Audio Coding 3
Расширение режима : CM (complete main)
Параметр Endianness формата : Big
Режим смешивания : DVD-Video
Продолжительность : 16 м.
Вид битрейта : Постоянный
Битрейт : 192 Кбит/сек
Каналы : 2 канала
Расположение каналов : Front: L R
Частота : 48,0 КГц
Битовая глубина : 16 бит
Метод сжатия : С потерями
Задержка видео : -368 мс.
Размер потока : 22,7 Мбайт (2%)

Аудио #3
Идентификатор : 189 (0xBD)-130 (0x82)
Формат : AC-3
Формат/Информация : Audio Coding 3
Расширение режима : CM (complete main)
Параметр Endianness формата : Big
Режим смешивания : DVD-Video
Продолжительность : 16 м.
Вид битрейта : Постоянный
Битрейт : 384 Кбит/сек
Каналы : 6 каналов
Расположение каналов : Front: L C R, Side: L R, LFE
Частота : 48,0 КГц
Битовая глубина : 16 бит
Метод сжатия : С потерями
Задержка видео : -464 мс.
Размер потока : 45,4 Мбайт (4%)

Текст
Идентификатор : 189 (0xBD)-32 (0x20)
Формат : RLE
Формат/Информация : Run-length encoding
Режим смешивания : DVD-Video
Продолжительность : 16 м.
Задержка видео : 360 мс.










pb.wtf



Скачать Охотник через торрент http://i38.fastpic.ru/big/2012/0523/ef/1b6c921d7b71400ba032f421a2c483ef.jpg Скачать фильм Охотник через торрент бесплантно в хорошем качестве Описание: Мартин — охотник-одиночка. У него нет друзей и семьи. Он берется за самые рискованные и опасные задания — ведь ему нечего ... 5 10 1
Info! Золотая раздача, скачанное не засчитывается.
Торрент: Зарегистрирован [2012-05-23 13:03] · скачан: 78 раз
Статус: √ проверено
Размер: 6.44 GB
Как cкачать? Как скачать Охотник через торрент | UTorrent

% Раздел Тема Автор DL S | L
R.G. Resident & PiratVoice - Фильмы, Видео [ 1.38 GB ] Охотник с Уолл-стрит / The Headhunter's Calling [2016 WEB-DLRip-AVC ] White Smoke Скачать
1 | 0
R.G. Resident & PiratVoice - Фильмы, Видео [ 2.18 GB ] Охотник с Уолл-стрит / The Headhunter's Calling [2016 WEB-DLRip ] - -Lexx- Скачать
1 | 0
Фильмы (DVD фильмы) [ 6.44 GB ] Последний охотник на ведьм / The Last Witch Hunter [2015 DVD9] R5 voovaz Скачать
1 | 0
R.G. Resident & PiratVoice - Фильмы, Видео [ 1.46 GB ] Последний охотник на ведьм / The Last Witch Hunter [2015 WEB-DLRip-AVC ] От R.G.Resident White Smoke Скачать
2 | 0
Фильмы 2012 [ 2.18 GB ] Охотник / The Hunter [2011 BDRip-AVC от R.G. AVI / AVC R5 ] ~Relizer~ Скачать
1 | 0

28-11-2019 20:33  

Отключить всю рекламу на сайте

23-05-2012 13:46 Охотник Скачать торрент  

Как фильм?pb.wtf



23-05-2012 14:22 Охотник Скачать торрент  

Будем посмотреть. :good2:pb.wtf



    Дорогой пользователь! Огромная просьба, поблагодарите релизера, оцените раздачу и оставьте свои комментарий, если Вы скачали Охотник через торрент бесплатно! Внесите свою лепту в развитие PiratBit!
    Комментировать посты могут только пользователи прошедшие не сложную регистрацию
    Показать сообщения:    

    Охотник через торрент
    Скачать бесплатно Охотник
    Охотник скачать торрент
    Охотник смотреть онлайн
    Cкачать фильм Охотник бесплатно
    Охотник скачать торрент в хорошем качестве
    Охотник смотреть онлайн бесплатно в хорошем качестве


    Вы не можете начинать темы
    Вы не можете отвечать на сообщения
    Вы не можете редактировать свои сообщения
    Вы не можете удалять свои сообщения
    Вы не можете голосовать в опросах
    Вы не можете прикреплять файлы к сообщениям
    Вы можете скачивать файлы