Ссылка на приватное зеркало нашего сайта всего за 1$. Внимание количество ограничено!!!

2 сезон

iTunes

1 сезон

1

iTunes

iTunes

iTunes

1 сезон

RePack

30

ИГРА 18+

pack

ВАЖНО

!!Акция!!

Alien_RageХит недели

RePack

MK11
pack

Забери бонус

RePack

jed

!!Акция!!

Alien_Rage

RePack

fifa19

RePack

Assassins Creed: Odyssey

RePack

NEED FOR SPEED™ PAYBACK

4 сезон

9 сезон

Бесстыжие 9 сезон

Все сериалы

все сериалы на PB.wtf

RePack

FAR CRY 5
  

1+1 / Intouchables (Оливье Накаш, Эрик Толедано) [2011 г., драма, комедия, BDRip (720p), DUB (лицензия)] pb.wtf

1+1 через торрент pb.wtf

Размер: 8.65 GB | Добавлен: 8 лет 5 мес. назад | Торрент скачан:257 раз
Скачать  

24-05-2012 07:49 1+1 Скачать торрент  

1+1 / Intouchables

Год выпуска: 2011
Страна: Франция
Жанр: драма, комедия
Продолжительность: 01:52:02
Перевод: Дубляж (Лицензия)

Режиссер: Оливье Накаш, Эрик Толедано

В ролях: Франсуа Клюзе, Омар Си, Анн Ле Ни, Одри Флеро, Клотильд Молле, Альба Гайя Крагеде Беллуджи, Сирил Менди, Кристиан Амери, Грегуар Эстерманн, Жозефин де Мо, Владимир Зайцев, Илья Исаев, Елена Соловьева, Андрей Градов, Рамиля Искандер

Описание: Пострадав в результате несчастного случая, богатый аристократ Филипп нанимает в помощники человека, который менее всего подходит для этой работы, для молодого жителя предместья Дрисса, только что освободившегося из тюрьмы. Несмотря на то, что Филипп прикован к инвалидному креслу, Дриссу удается привнести в размеренную жизнь аристократа дух приключений.

Качество: BDRip (720p)
Формат: MKV
Видео кодек: AVC
Аудио кодек: AC3, DTS
Видео: 1280x694 (16/9), 24.000 fps, 6 729 Kbps (0.316 bit/pixel)
Аудио#1: AC-3, 48.0 KHz, 6 ch, 448 Kbps, CBR (Dub)
Аудио#2: DTS, 48.0 KHz, 6 ch, 1 510 Kbps, CBR (OzzTV)
Аудио#3: DTS, 48.0 KHz, 6 ch, 1 510 Kbps, CBR (Zamez)
Аудио#4: AC-3, 48.0 KHz, 6 ch, 640 Kbps, CBR (French)
Субтитры: Russian, English
скриншот   скриншот   скриншот   скриншот   скриншот  
Общее
Уникальный идентификатор : 189628738379790921223216838308259236217 (0x8EA92AA36D5D486DBC6B90C66D390979)
Полное имя : D:\Фильмы\1+1.BDRip.720p.mkv
Формат : Matroska
Версия формата : Version 2
Размер файла : 8,65 Гбайт
Продолжительность : 1 ч. 52 м.
Общий поток : 11,1 Мбит/сек
Название фильма : 1+1.2011.D.BDRip.720p.[uniongang.tv] by sstonecold
Дата кодирования : UTC 2012-05-23 19:26:46
Программа кодирования : mkvmerge v5.2.0 ('I can't explain') built on Dec 18 2011 18:12:03
Библиотека кодирования : libebml v1.2.3 + libmatroska v1.3.0

Видео
Идентификатор : 1
Формат : AVC
Формат/Информация : Advanced Video Codec
Профиль формата : High@L4.0
Параметр CABAC формата : Да
Параметр ReFrames формата : 9 кадров
Идентификатор кодека : V_MPEG4/ISO/AVC
Продолжительность : 1 ч. 52 м.
Битрейт : 6731 Кбит/сек
Ширина : 1280 пикселей
Высота : 694 пикселя
Соотношение сторон : 1,85:1
Частота кадров : 24,000 кадра/сек
Цветовое пространство : YUV
Субдискретизация насыщенности : 4:2:0
Битовая глубина : 8 бит
Тип развёртки : Прогрессивная
Бит/(Пиксели*Кадры) : 0.316
Размер потока : 5,27 Гбайт (61%)
Заголовок : 1+1.2011.D.BDRip.720p.[uniongang.tv] by sstonecold
Библиотека кодирования : x264 core 122 r2184 5c85e0a
Настройки программы : cabac=1 / ref=9 / deblock=1:-3:-3 / analyse=0x3:0x113 / me=tesa / subme=11 / psy=1 / psy_rd=1.10:0.00 / mixed_ref=1 / me_range=16 / chroma_me=1 / trellis=2 / 8x8dct=1 / cqm=0 / deadzone=21,11 / fast_pskip=0 / chroma_qp_offset=-2 / threads=6 / sliced_threads=0 / nr=0 / decimate=0 / interlaced=0 / bluray_compat=0 / constrained_intra=0 / bframes=10 / b_pyramid=2 / b_adapt=2 / b_bias=0 / direct=3 / weightb=1 / open_gop=0 / weightp=2 / keyint=250 / keyint_min=24 / scenecut=40 / intra_refresh=0 / rc=crf / mbtree=0 / crf=17.6 / qcomp=0.70 / qpmin=0 / qpmax=69 / qpstep=4 / ip_ratio=1.40 / pb_ratio=1.30 / aq=1:0.50 / zones=24796,26116,crf=17.1/56531,64210,crf=17.1
Язык : French
Default : Да
Forced : Нет
Основные цвета : BT.709-5, BT.1361, IEC 61966-2-4, SMPTE RP177
Характеристики трансфера : BT.709-5, BT.1361
Коэффициенты матрицы : BT.709-5, BT.1361, IEC 61966-2-4 709, SMPTE RP177

Аудио #1
Идентификатор : 2
Формат : AC-3
Формат/Информация : Audio Coding 3
Расширение режима : CM (complete main)
Параметр Endianness формата : Big
Идентификатор кодека : A_AC3
Продолжительность : 1 ч. 52 м.
Вид битрейта : Постоянный
Битрейт : 448 Кбит/сек
Каналы : 6 каналов
Расположение каналов : Front: L C R, Side: L R, LFE
Частота : 48,0 КГц
Битовая глубина : 16 бит
Метод сжатия : С потерями
Размер потока : 359 Мбайт (4%)
Заголовок : R5
Язык : Russian
Default : Да
Forced : Нет

Аудио #2
Идентификатор : 3
Формат : DTS
Формат/Информация : Digital Theater Systems
Идентификатор кодека : A_DTS
Продолжительность : 1 ч. 52 м.
Вид битрейта : Постоянный
Битрейт : 1510 Кбит/сек
Каналы : 6 каналов
Расположение каналов : Front: L C R, Side: L R, LFE
Частота : 48,0 КГц
Битовая глубина : 24 бит
Метод сжатия : С потерями
Размер потока : 1,18 Гбайт (14%)
Заголовок : ozz tv
Язык : Russian
Default : Нет
Forced : Нет

Аудио #3
Идентификатор : 4
Формат : DTS
Формат/Информация : Digital Theater Systems
Идентификатор кодека : A_DTS
Продолжительность : 1 ч. 52 м.
Вид битрейта : Постоянный
Битрейт : 1510 Кбит/сек
Каналы : 6 каналов
Расположение каналов : Front: L C R, Side: L R, LFE
Частота : 48,0 КГц
Битовая глубина : 24 бит
Метод сжатия : С потерями
Размер потока : 1,18 Гбайт (14%)
Заголовок : zamez
Язык : Russian
Default : Нет
Forced : Нет

Аудио #4
Идентификатор : 5
Формат : AC-3
Формат/Информация : Audio Coding 3
Расширение режима : CM (complete main)
Параметр Endianness формата : Big
Идентификатор кодека : A_AC3
Продолжительность : 1 ч. 52 м.
Вид битрейта : Постоянный
Битрейт : 640 Кбит/сек
Каналы : 6 каналов
Расположение каналов : Front: L C R, Side: L R, LFE
Частота : 48,0 КГц
Битовая глубина : 16 бит
Метод сжатия : С потерями
Размер потока : 513 Мбайт (6%)
Язык : French
Default : Нет
Forced : Нет

Текст #1
Идентификатор : 6
Формат : UTF-8
Идентификатор кодека : S_TEXT/UTF8
Идентификатор кодека/Информация : UTF-8 Plain Text
Язык : Russian
Default : Да
Forced : Нет

Текст #2
Идентификатор : 7
Формат : UTF-8
Идентификатор кодека : S_TEXT/UTF8
Идентификатор кодека/Информация : UTF-8 Plain Text
Язык : English
Default : Нет
Forced : Нет

Меню
00:00:00.000 : en:Chapter 1
00:07:26.000 : en:Chapter 2
00:12:54.375 : en:Chapter 3
00:18:56.667 : en:Chapter 4
00:26:51.958 : en:Chapter 5
00:30:50.708 : en:Chapter 6
00:37:26.208 : en:Chapter 7
00:42:05.667 : en:Chapter 8
00:48:45.333 : en:Chapter 9
00:54:26.250 : en:Chapter 10
00:58:02.708 : en:Chapter 11
01:04:06.833 : en:Chapter 12
01:14:27.042 : en:Chapter 13
01:21:39.833 : en:Chapter 14
01:29:26.125 : en:Chapter 15
01:35:56.875 : en:Chapter 16
01:40:22.042 : en:Chapter 17
01:45:12.542 : en:Chapter 18
pb.wtf



Скачать 1+1 через торрент http://i36.fastpic.ru/big/2012/0524/d5/281b8521a386136da7f3b927445ae7d5.png Скачать фильм 1+1 через торрент бесплантно в хорошем качестве Описание: Пострадав в результате несчастного случая, богатый аристократ Филипп нанимает в помощники человека, который менее всего подходит ... 10 10 1
Info! Золотая раздача, скачанное не засчитывается.
Торрент: Зарегистрирован [2012-05-24 07:49] · скачан: 257 раз
Статус: √ проверено
Размер: 8.65 GB
Как cкачать? Как скачать 1+1 через торрент | qTorrent

% Раздел Тема Автор DL S | L
Фильмы [HD 720p, 1080p] (Хороший звук DUB, MVO) [ 17.23 GB ] 1+1 / Intouchables [2011 биография BDRip 1080p] 2xDub + DVO + VO + Original + Sub Seedtank Скачать
1 | 0
Фильмы [HD 720p, 1080p] (Хороший звук DUB, MVO) [ 15.64 GB ] 1+1 / Intouchables [2011 биография BDRip 1080p by msltel] DUB MVO msltel Скачать
1 | 0
Фильмы с авторской озвучкой [ 1.46 GB ] Неприкасаемые / 1+1 / Intouchables [2011 биография HDRip] [AVO] killermax2013 Скачать
2 | 0
Фильмы [HD 720p, 1080p] (Хороший звук DUB, MVO) [ 5.72 GB ] 1+1 / Intouchables [2011 биография BDRip 720p by msltel] DUB MVO msltel Скачать
1 | 0
Фильмы 2011 [ 3.29 GB ] 1+1 / Intouchables [2011 биография BDRip AVC by msltel] DUB MVO msltel Скачать
2 | 0
Фильмы 2012 [ 2.18 GB ] 1+1 / Intouchables [2011 BDRip-AVC от HQ-ViDEO DUB ] ~Relizer~ Скачать
1 | 0
Фильмы 2011 [ 2.18 GB ] 1+1 / Intouchables [2011 HDRip DUB ] shuller Скачать
1 | 0

28-11-2019 20:33  

Отключить всю рекламу на сайте

24-05-2012 12:44 1+1 Скачать торрент  

Этот фильм просто суперский!!!Никто не пожалеет если посмотрит!Куча позитивных эмоций после просмотра.pb.wtf



05-10-2012 05:25 1+1 Скачать торрент  

отличный филь, спасибоpb.wtf



    Дорогой пользователь! Огромная просьба, поблагодарите релизера, оцените раздачу и оставьте свои комментарий, если Вы скачали 1+1 через торрент бесплатно! Внесите свою лепту в развитие PiratBit!
    Комментировать посты могут только пользователи прошедшие не сложную регистрацию
    Показать сообщения:    

    1+1 через торрент
    Скачать бесплатно 1+1
    1+1 скачать торрент
    1+1 смотреть онлайн
    Cкачать фильм 1+1 бесплатно
    1+1 скачать торрент в хорошем качестве
    1+1 смотреть онлайн бесплатно в хорошем качестве


    Вы не можете начинать темы
    Вы не можете отвечать на сообщения
    Вы не можете редактировать свои сообщения
    Вы не можете удалять свои сообщения
    Вы не можете голосовать в опросах
    Вы не можете прикреплять файлы к сообщениям
    Вы можете скачивать файлы