новый адрес
Ссылка на приватное зеркало всего за 1$. Внимание количество ограничено!!!

iTunes

1+1

iTunes

мы

WEB-DL

1

iTunes

Чернобыль

iTunes

Ральф против интернета

Лицензия

ПШазам

Лицензия

Оно 2

Лицензия

30
pack

Вам бонус

ВАЖНО

!!Акция!!

Alien_RageХит недели

RePack

Resident Evil 21

ИГРА 18+

pack

RePack

jed

!!Акция!!

Alien_Rage

RePack

fifa19

RePack

Assassins Creed: Odyssey

RePack

NEED FOR SPEED™ PAYBACK

3 сезон

9 сезон

Бесстыжие 9 сезон

Все сериалы

все сериалы на PB.wtf

RePack

FAR CRY 5
Ребята, катастрофически не хватает 1900р. для оплаты серверов за Октябрь (всвязи с блокировками трафик упал в 3 раза), 1-2р., выручайте.
  

Код синий / Code Blue (Урсула Антоняк) [2011 г., драма, HDRip, VO] pb.wtf

Код синий через торрент pb.wtf

Размер: 1.45 GB | Добавлен: 7 лет 6 мес. назад | Торрент скачан:27 раз
Скачать  

25-05-2012 08:53 Код синий Скачать торрент  

Код синий / Code Blue

Год выпуска: 2011
Страна: Нидерланды
Жанр: Драма
Продолжительность: 01:17:27
Перевод: Любительский (одноголосый) [Хихикающий доктор]
Субтитры: Отсутствуют

Режиссер: Урсула Антоняк
Продюссер: Арнольд Хесленфельд, Флор Онруст, Франс ван Гестель, ...

Премьера в мире: 15 мая 2011




В ролях: Бьен Де Моор, Ларс Айдингер, Аннемари Принс, Софи ван Винден, Ганс Кестинг, Сэм де Ман, Рени Фоккер

Описание: Болезненная, почти бесполая из-за чрезмерной худобы Мариан работает дежурной медсестрой вВ отделении дляВ безнадежно больных. Кажется, чтоВ интуитивно чувствуя боль умирающих иВ беззвучно оплакивая их, онаВ находится сВ каждым вВ невидимом родстве. Только привязанность Мариан кВ людям — двойственна, ведь дляВ некоторых онаВ становится ангелом смерти.

Качество: HDRip
Формат: AVI
Видео кодек: XviD
Аудио кодек: AC3
Видео: 720x304 (2.37:1), 25 fps, XviD build 50 ~2286 kbps avg, 0.42 bit/pixel
Аудио#1: 48 kHz, MPEG Layer 3, 2 ch, ~192.00 kbps avg Русский
Аудио#2: 48 kHz, MPEG Layer 3, 2 ch, ~192.00 kbps avg Немецкий



Общее
Полное имя : F:\Закачки\Cod.Siniy.2011.HDRip.avi
Формат : AVI
Формат/Информация : Audio Video Interleave
Размер файла : 1,45 Гбайт
Продолжительность : 1 ч. 17 м.
Общий поток : 2686 Кбит/сек
Программа кодирования : VirtualDubMod 1.5.10.3 | www.virtualdub-fr.org || (build 2550/release)
Библиотека кодирования : VirtualDubMod build 2550/release

Видео
Идентификатор : 0
Формат : MPEG-4 Visual
Профиль формата : Advanced Simple@L5
Параметр BVOP формата : 2
Параметр QPel формата : Нет
Параметр GMC формата : Без точки перехода
Параметр матрицы формата : Default (MPEG)
Идентификатор кодека : XVID
Идентификатор кодека/Подсказка : XviD
Продолжительность : 1 ч. 17 м.
Битрейт : 2287 Кбит/сек
Ширина : 720 пикселей
Высота : 304 пикселя
Соотношение сторон : 2,35:1
Частота кадров : 25,000 кадров/сек
Цветовое пространство : YUV
Субдискретизация насыщенности : 4:2:0
Битовая глубина : 8 бит
Тип развёртки : Прогрессивная
Метод сжатия : С потерями
Бит/(Пиксели*Кадры) : 0.418
Размер потока : 1,24 Гбайт (85%)
Библиотека кодирования : XviD 1.2.1 (UTC 2008-12-04)

Аудио #1
Идентификатор : 1
Формат : MPEG Audio
Версия формата : Version 1
Профиль формата : Layer 3
Режим : Joint stereo
Идентификатор кодека : 55
Идентификатор кодека/Подсказка : MP3
Продолжительность : 1 ч. 17 м.
Вид битрейта : Постоянный
Битрейт : 192 Кбит/сек
Каналы : 2 канала
Частота : 48,0 КГц
Метод сжатия : С потерями
Размер потока : 106 Мбайт (7%)
Выравнивание : Соединение по промежуткам
Продолжительность промежутка : 40 мс. (1,00 видеокадр)
Время предзагрузки промежутка : 504 мс.

Аудио #2
Идентификатор : 2
Формат : MPEG Audio
Версия формата : Version 1
Профиль формата : Layer 3
Режим : Joint stereo
Идентификатор кодека : 55
Идентификатор кодека/Подсказка : MP3
Продолжительность : 1 ч. 17 м.
Вид битрейта : Постоянный
Битрейт : 192 Кбит/сек
Каналы : 2 канала
Частота : 48,0 КГц
Метод сжатия : С потерями
Размер потока : 106 Мбайт (7%)
Выравнивание : Соединение по промежуткам
Продолжительность промежутка : 40 мс. (1,00 видеокадр)
Время предзагрузки промежутка : 504 мс.

pb.wtf



Скачать Код синий через торрент http://pic.kartinco.top/images/2000/a9nha94pcb.jpg Скачать фильм Код синий через торрент бесплантно в хорошем качестве Описание: Болезненная, почти бесполая из-за чрезмерной худобы Мариан работает дежурной медсестрой вВ отделении дляВ безнадежно больных. ... 5 10 1
Info! Золотая раздача, скачанное не засчитывается.
Торрент: Зарегистрирован [2012-05-25 08:53] · скачан: 27 раз
Статус: T временная
Размер: 1.45 GB
Как cкачать? Как скачать Код синий через торрент | qTorrent



Последний раз редактировалось: DJERG (2012-05-25 09:28), всего редактировалось 2 раз(а)

28-11-2019 20:33  

Отключить всю рекламу на сайте

    Дорогой пользователь! Огромная просьба, поблагодарите релизера, оцените раздачу и оставьте свои комментарий, если Вы скачали Код синий через торрент бесплатно! Внесите свою лепту в развитие PiratBit!
    Комментировать посты могут только пользователи прошедшие не сложную регистрацию
    Показать сообщения:    

    Код синий через торрент
    Скачать бесплатно Код синий
    Код синий скачать торрент
    Код синий смотреть онлайн
    Cкачать фильм Код синий бесплатно
    Код синий скачать торрент в хорошем качестве
    Код синий смотреть онлайн бесплатно в хорошем качестве


    Вы не можете начинать темы
    Вы не можете отвечать на сообщения
    Вы не можете редактировать свои сообщения
    Вы не можете удалять свои сообщения
    Вы не можете голосовать в опросах
    Вы не можете прикреплять файлы к сообщениям
    Вы можете скачивать файлы