Ссылка на приватное зеркало нашего сайта всего за 1$. Внимание количество ограничено!!!

2 сезон

iTunes

1 сезон

1

iTunes

iTunes

iTunes

1 сезон

RePack

30

ИГРА 18+

pack

ВАЖНО

!!Акция!!

Alien_RageХит недели

RePack

MK11
pack

Забери бонус

RePack

jed

!!Акция!!

Alien_Rage

RePack

fifa19

RePack

Assassins Creed: Odyssey

RePack

NEED FOR SPEED™ PAYBACK

4 сезон

9 сезон

Бесстыжие 9 сезон

Все сериалы

все сериалы на PB.wtf

RePack

FAR CRY 5
  

Джон Картер / John Carter (Эндрю Стэнтон) [2012 г., фантастика, фэнтези, боевик, приключения, BDRip (1080p), DUB (лицензия)+ Оригинал] pb.wtf

Джон Картер через торрент pb.wtf

Размер: 15.18 GB | Добавлен: 8 лет 5 мес. назад | Торрент скачан:1110 раз
Скачать  

25-05-2012 09:39 Джон Картер Скачать торрент  


Джон Картер / John Carter
«В этом мире у каждого есть второй шанс»
Год выпуска: 2012
Страна: США, Walt Disney Pictures
Жанр: фантастика, фэнтези, боевик, приключения
Продолжительность: 02:12:01
Перевод: Дубляж (Лицензия Blu-Ray CEE) + Оригинал

Режиссер: Эндрю Стэнтон

В ролях: Тейлор Китч, Линн Коллинз, Саманта Мортон, Уиллем Дефо, Томас Хейден Чёрч, Марк Стронг, Кирен Хайдз, Доминик Уэст, Джеймс Пьюрфой, Брайан Крэнстон и др.

Описание: Ветеран Гражданской войны в США Джон Картер против своей воли оказывается на Марсе, где попадает в плен к воинственным четырехметровым туземцам. Картеру предстоит не только спастись самому, но и спасти принцессу Дею Торис с Гелиума.

Качество: BDRip (1080p)| исх. Blu-ray 2D 1080p AVC DTS-HD MA 7.1-HDChina (2D > 3D)
Формат: MKV
Видео кодек: AVC
Аудио кодек: AC3
Видео: AVC, 1920x800 (2.40:1), 23.976 fps, 13.7 Mbps (0.371 bit/pixel)
Аудио#1: AC-3, 48.0 KHz, 6 ch, 640 Kbps, CBR (Russian)
Аудио#2: AC-3, 48.0 KHz, 6 ch, 640 Kbps, CBR (Ukrainian)
Аудио#3: DTS, 48.0 KHz, 6 ch, 1 510 Kbps, CBR (English)
Субтитры: Russian, Russian, English, English, English, English

Unique ID : 170744388180369173960075515483211444007 (0x80742C49F125B631A414336AE9FC2F27)
Complete name : E:\Dzhon.Karter.2012.x264.BDRip(1080p).mkv
Format : Matroska
Format version : Version 2
File size : 15.2 GiB
Duration : 2h 12mn
Overall bit rate : 16.5 Mbps
Movie name : --SCHUMAHER--
Encoded date : UTC 2012-05-24 20:53:11
Writing application : mkvmerge v5.5.0 ('Healer') built on Apr 6 2012 21:43:24
Writing library : libebml v1.2.3 + libmatroska v1.3.0

Video
ID : 1
Format : AVC
Format/Info : Advanced Video Codec
Format profile : High@L4.1
Format settings, CABAC : Yes
Format settings, ReFrames : 4 frames
Codec ID : V_MPEG4/ISO/AVC
Duration : 2h 12mn
Bit rate : 13.7 Mbps
Width : 1 920 pixels
Height : 800 pixels
Display aspect ratio : 2.40:1
Frame rate : 23.976 fps
Color space : YUV
Chroma subsampling : 4:2:0
Bit depth : 8 bits
Scan type : Progressive
Bits/(Pixel*Frame) : 0.371
Stream size : 12.3 GiB (81%)
Writing library : x264 core 122 r2184 5c85e0a
Encoding settings : cabac=1 / ref=4 / deblock=1:-3:-3 / analyse=0x3:0x133 / me=umh / subme=11 / psy=1 / psy_rd=1.05:0.05 / mixed_ref=1 / me_range=64 / chroma_me=1 / trellis=2 / 8x8dct=1 / cqm=0 / deadzone=21,11 / fast_pskip=0 / chroma_qp_offset=-3 / threads=12 / sliced_threads=0 / nr=0 / decimate=1 / interlaced=0 / bluray_compat=0 / constrained_intra=0 / bframes=8 / b_pyramid=2 / b_adapt=2 / b_bias=0 / direct=3 / weightb=1 / open_gop=0 / weightp=2 / keyint=250 / keyint_min=23 / scenecut=40 / intra_refresh=0 / rc_lookahead=250 / rc=2pass / mbtree=1 / bitrate=13666 / ratetol=1.0 / qcomp=0.60 / qpmin=0 / qpmax=69 / qpstep=4 / cplxblur=20.0 / qblur=0.5 / vbv_maxrate=40000 / vbv_bufsize=30000 / nal_hrd=none / ip_ratio=1.40 / aq=1:0.90
Language : English
Default : Yes
Forced : Yes

Audio #1
ID : 2
Format : AC-3
Format/Info : Audio Coding 3
Mode extension : CM (complete main)
Format settings, Endianness : Big
Codec ID : A_AC3
Duration : 2h 12mn
Bit rate mode : Constant
Bit rate : 640 Kbps
Channel(s) : 6 channels
Channel positions : Front: L C R, Side: L R, LFE
Sampling rate : 48.0 KHz
Bit depth : 16 bits
Compression mode : Lossy
Stream size : 604 MiB (4%)
Language : Russian
Default : Yes
Forced : Yes

Audio #2
ID : 3
Format : AC-3
Format/Info : Audio Coding 3
Mode extension : CM (complete main)
Format settings, Endianness : Big
Codec ID : A_AC3
Duration : 2h 12mn
Bit rate mode : Constant
Bit rate : 640 Kbps
Channel(s) : 6 channels
Channel positions : Front: L C R, Side: L R, LFE
Sampling rate : 48.0 KHz
Bit depth : 16 bits
Compression mode : Lossy
Stream size : 604 MiB (4%)
Language : Ukrainian
Default : No
Forced : No

Audio #3
ID : 4
Format : DTS
Format/Info : Digital Theater Systems
Codec ID : A_DTS
Duration : 2h 12mn
Bit rate mode : Constant
Bit rate : 1 510 Kbps
Channel(s) : 6 channels
Channel positions : Front: L C R, Side: L R, LFE
Sampling rate : 48.0 KHz
Bit depth : 24 bits
Compression mode : Lossy
Stream size : 1.39 GiB (9%)
Language : English
Default : No
Forced : No

Text #1
ID : 5
Format : UTF-8
Codec ID : S_TEXT/UTF8
Codec ID/Info : UTF-8 Plain Text
Title : Forced
Language : Russian
Default : Yes
Forced : Yes

Text #2
ID : 6
Format : UTF-8
Codec ID : S_TEXT/UTF8
Codec ID/Info : UTF-8 Plain Text
Title : Full
Language : Russian
Default : No
Forced : No

Text #3
ID : 7
Format : UTF-8
Codec ID : S_TEXT/UTF8
Codec ID/Info : UTF-8 Plain Text
Title : Forced
Language : English
Default : No
Forced : No

Text #4
ID : 8
Format : UTF-8
Codec ID : S_TEXT/UTF8
Codec ID/Info : UTF-8 Plain Text
Title : Full
Language : English
Default : No
Forced : No

Text #5
ID : 9
Format : UTF-8
Codec ID : S_TEXT/UTF8
Codec ID/Info : UTF-8 Plain Text
Title : SDH
Language : English
Default : No
Forced : No

Text #6
ID : 10
Format : UTF-8
Codec ID : S_TEXT/UTF8
Codec ID/Info : UTF-8 Plain Text
Title : Color
Language : English
Default : No
Forced : No

Menu
00:00:00.000 : en:
00:04:01.241 : en:
00:10:22.913 : en:
00:20:08.790 : en:
00:27:05.206 : en:
00:37:29.163 : en:
00:47:43.569 : en:
00:58:51.653 : en:
01:07:42.433 : en:
01:15:01.037 : en:
01:22:34.198 : en:
01:30:29.799 : en:
01:37:02.066 : en:
01:46:52.030 : en:
01:53:48.988 : en:
02:02:54.533 : en:


Рип от DON! :ad:pb.wtf



Скачать Джон Картер через торрент http://lostpic.net/images/667599fe60b0e7c7396538dd001b1188.png Скачать фильм Джон Картер через торрент бесплантно в хорошем качестве Описание: Ветеран Гражданской войны в США Джон Картер против своей воли оказывается на Марсе, где попадает в плен к воинственным ... 8.5 10 4
Info! Золотая раздача, скачанное не засчитывается.
Торрент: Зарегистрирован [2012-05-25 09:39] · скачан: 1 110 раз
Статус: √ проверено
Размер: 15.18 GB
Как cкачать? Как скачать Джон Картер через торрент | qTorrent

% Раздел Тема Автор DL S | L
Фильмы [HD 720p, 1080p] (Хороший звук DUB, MVO) [ 8.08 GB ] Джон Картер / John Carter [2012 BDRip DUB + Оригинал] ~Relizer~ Скачать
1 | 0
Фильмы 2012 [ 2.9 GB ] Джон Картер / John Carter [2012 BDRip-AVC от HQ-ViDEO DUB + Оригинал] ~Relizer~ Скачать
1 | 0


Последний раз редактировалось: ~Relizer~ (2012-05-25 10:31), всего редактировалось 2 раз(а)

28-11-2019 20:33  

Отключить всю рекламу на сайте

25-05-2012 10:08 Джон Картер Скачать торрент  

Это релиз не от "электрички", а от HQ-Video!!!pb.wtf



25-05-2012 11:30 Джон Картер Скачать торрент  

Проверка будет?pb.wtf



25-05-2012 13:09 Джон Картер Скачать торрент  

Что-то скорости нет (pb.wtf



28-05-2012 07:44 Джон Картер Скачать торрент  

чтот сабов не нашол как их включить на телевизоре)pb.wtf



    Дорогой пользователь! Огромная просьба, поблагодарите релизера, оцените раздачу и оставьте свои комментарий, если Вы скачали Джон Картер через торрент бесплатно! Внесите свою лепту в развитие PiratBit!
    Комментировать посты могут только пользователи прошедшие не сложную регистрацию
    Показать сообщения:    

    Джон Картер через торрент
    Скачать бесплатно Джон Картер
    Джон Картер скачать торрент
    Джон Картер смотреть онлайн
    Cкачать фильм Джон Картер бесплатно
    Джон Картер скачать торрент в хорошем качестве
    Джон Картер смотреть онлайн бесплатно в хорошем качестве


    Вы не можете начинать темы
    Вы не можете отвечать на сообщения
    Вы не можете редактировать свои сообщения
    Вы не можете удалять свои сообщения
    Вы не можете голосовать в опросах
    Вы не можете прикреплять файлы к сообщениям
    Вы можете скачивать файлы