Ссылка на приватное зеркало нашего сайта всего за 1$. Внимание количество ограничено!!!

2 сезон

iTunes

1 сезон

1

2 сезон

2 сезон

iTunes

1 сезон

RePack

30

Ultimate

ВАЖНО

ИГРА 18+

pack

RePack

MK11
pack

Забери бонус

RePack

jed

!!Акция!!

Alien_Rage

RePack

fifa19

RePack

Assassins Creed: Odyssey

RePack

NEED FOR SPEED™ PAYBACK

4 сезон

9 сезон

Бесстыжие 9 сезон

Все сериалы

все сериалы на PB.wtf

RePack

FAR CRY 5
  

Тайный круг / The Secret Circle / Сезон: 1 / Эпизод 1-22 (22) (Лиз Фридлендер) [2011 г., ужасы, фэнтези, драма, WEB-DLRip 400p] (Кубик в Кубе) pb.wtf

Тайный круг через торрент pb.wtf

Размер: 18.12 GB | Добавлен: 8 лет 5 мес. назад | Торрент скачан:72 раза
Скачать  

25-05-2012 10:51 Тайный круг Скачать торрент  

Тайный круг / The Secret Circle

Год выпуска: 2011
Страна: США
Жанр: ужасы, фэнтези, драма
Продолжительность: ~ 45 мин
Перевод: Профессиональный двухголосый закадровый(Кубик в Кубе)
Режиссер: Лиз Фридлендер
Субтитры: рус, англ

В ролях:
Бриттани Робертсон, Томас Деккер, Гейл Харольд, Наташа Хенстридж, Фиби Тонкин, Шелли Хенниг, Луис Хантер, Эшли Кроу, Адам Харрингтон
Описание:
После трагической гибели матери, старшеклассница Кэсси Блейк переезжает к своей бабушке в маленький городок Ченс-Харбор. Очень скоро выясняется, что возвращение Кэсси в город, где родилась и выросла её мать, не было случайностью - оказывается, Кэсси потомственная ведьма, и юному ведьмовскому клану как раз не хватало шестого участника, чтобы обрести полную силу. Но почему мать никогда не рассказывала Кэсси о своих и её способностях? Какая трагедия 16 лет назад лишила каждого участника Тайного Круга одного из родителей? И что замышляют те представители старшего поколения ведьм, что остались в живых? У Тайного Круга очень много тайн...

Качество: WEB-DLRip
Формат: AVI
Видео кодек: XviD
Аудио кодек: AC3
Видео: 720x400 (1.80:1), 23.976 fps, XviD build 64 ~1998 kbps avg, 0.29 bit/pixel
Аудио Rus: 48 kHz, AC3 Dolby Digital, 3/2 (L,C,R,l,r) + LFE ch, ~384 kbps
Аудио Eng: 48 kHz, AC3 Dolby Digital, 3/2 (L,C,R,l,r) + LFE ch, ~384 kbps

Озвучка: Кубик в Кубе
Перевод: MJM Group(1-10), Анастасия Кисиленко(11-22)
Работа со звуком: TranceWeLoveYou
Рип: ЛП



General
Complete name : H:\Фтп 3\Work\Kybik v Kybe\The Secret Circle Season 1\The.Secret.Circle.s01e01.rus.eng.avi
Format : AVI
Format/Info : Audio Video Interleave
File size : 845 MiB
Duration : 42mn 28s
Overall bit rate : 2 781 Kbps
Writing application : VirtualDubMod 1.5.10.2 (build 2540/release)
Writing library : VirtualDubMod build 2540/release
Video
ID : 0
Format : MPEG-4 Visual
Format profile : Advanced Simple@L5
Format settings, BVOP : Yes
Format settings, QPel : No
Format settings, GMC : No warppoints
Format settings, Matrix : Default (MPEG)
Codec ID : XVID
Codec ID/Hint : XviD
Duration : 42mn 28s
Bit rate : 1 999 Kbps
Width : 720 pixels
Height : 400 pixels
Display aspect ratio : 16:9
Frame rate : 23.976 fps
Color space : YUV
Chroma subsampling : 4:2:0
Bit depth : 8 bits
Scan type : Progressive
Bits/(Pixel*Frame) : 0.290
Stream size : 607 MiB (72%)
Writing library : XviD 64
Audio #1
ID : 1
Format : AC-3
Format/Info : Audio Coding 3
Mode extension : CM (complete main)
Codec ID : 2000
Duration : 42mn 28s
Bit rate mode : Constant
Bit rate : 384 Kbps
Channel(s) : 6 channels
Channel positions : Front: L C R, Side: L R, LFE
Sampling rate : 48.0 KHz
Bit depth : 16 bits
Stream size : 117 MiB (14%)
Alignment : Split accross interleaves
Interleave, duration : 42 ms (1.00 video frame)
Interleave, preload duration : 500 ms
Audio #2
ID : 2
Format : AC-3
Format/Info : Audio Coding 3
Mode extension : CM (complete main)
Codec ID : 2000
Duration : 42mn 28s
Bit rate mode : Constant
Bit rate : 384 Kbps
Channel(s) : 6 channels
Channel positions : Front: L C R, Side: L R, LFE
Sampling rate : 48.0 KHz
Bit depth : 16 bits
Stream size : 117 MiB (14%)
Alignment : Split accross interleaves
Interleave, duration : 42 ms (1.00 video frame)
Interleave, preload duration : 500 ms
  • Pilot
  • Bound
  • Loner
  • Heather
  • Slither
  • Wake
  • Masked
  • Beneath
  • Balcoin
  • Darkness
  • Fire/Ice
  • Witness
  • Valentine[/list:o]
pb.wtf



Скачать Тайный круг через торрент http://i29.fastpic.ru/big/2011/0929/be/ba060111a7bdb329c15526465b4024be.jpg Скачать фильм Тайный круг через торрент бесплантно в хорошем качестве Описание: После трагической гибели матери, старшеклассница Кэсси Блейк переезжает к своей бабушке в маленький городок Ченс-Харбор. Очень ... 10 10 1
Info! Золотая раздача, скачанное не засчитывается.
Торрент: Зарегистрирован [2012-05-25 10:51] · скачан: 72 раз
Статус: √ проверено
Размер: 18.12 GB
Как cкачать? Как скачать Тайный круг через торрент | qTorrent

% Раздел Тема Автор DL S | L
Зарубежные сериалы [ 9.03 GB ] Тайный круг / The Secret Circle Сезон: 1 эпизод 1-22 [2011 HDTVRip] wekotila Скачать
1 | 0

28-11-2019 20:33  

Отключить всю рекламу на сайте

12-07-2014 05:55 Тайный круг Скачать торрент  

pb.wtf



    Дорогой пользователь! Огромная просьба, поблагодарите релизера, оцените раздачу и оставьте свои комментарий, если Вы скачали Тайный круг через торрент бесплатно! Внесите свою лепту в развитие PiratBit!
    Комментировать посты могут только пользователи прошедшие не сложную регистрацию
    Показать сообщения:    

    Тайный круг через торрент
    Скачать бесплатно Тайный круг
    Тайный круг скачать торрент
    Тайный круг смотреть онлайн
    Cкачать фильм Тайный круг бесплатно
    Тайный круг скачать торрент в хорошем качестве
    Тайный круг смотреть онлайн бесплатно в хорошем качестве


    Вы не можете начинать темы
    Вы не можете отвечать на сообщения
    Вы не можете редактировать свои сообщения
    Вы не можете удалять свои сообщения
    Вы не можете голосовать в опросах
    Вы не можете прикреплять файлы к сообщениям
    Вы можете скачивать файлы