Мега распродажа FORZA HORIZON 4 ULTIMATE+ВСЕ DLC+ОНЛАЙН всего за 499р. 349 руб. (супер цена). Внимание количество ограничено!!!

Лицензия

30

iTunes

мы

iTunes

1

1 сезон

Чернобыль

1 сезон

Ральф против интернета

MVO

Покемон. Детектив Пикачу

8 сезон

Игра престолов

iTunes

1+1

ИГРА 18+

pack

ВАЖНО

!!Акция!!

Alien_RageХит недели

RePack

Resident Evil 21
pack

RePack

Metro:Exodus

!!Акция!!

Alien_Rage

RePack

fifa19

RePack

Assassins Creed: Odyssey

RePack

NEED FOR SPEED™ PAYBACK

3 сезон

9 сезон

Бесстыжие 9 сезон

Все сериалы

все сериалы на PB.wtf

RePack

FAR CRY 5
Ребята, катастрофически не хватает 2730р. для оплаты серверов за МАЙ (всвязи с блокировками трафик упал в 3 раза), 1-2р., выручайте.
  

Всадники апокалипсиса / Horsemen (Йонас Акерлунд) [2009 г., триллер, драма, криминал, детектив, HDRip, Профессиональный (многоголосый) (лицензия)] pb.wtf

Всадники апокалипсиса через торрент pb.wtf

Размер: 1.46 GB | Добавлен: 7 лет назад | Торрент скачан:292 раза
Скачать  

25-05-2012 19:39 Всадники апокалипсиса Скачать торрент  

Всадники апокалипсиса / Horsemen

Год выпуска: 2009
Страна: США
Жанр: триллер, драма, криминал, детектив
Продолжительность: 01:30:13
Перевод: Профессиональный (многоголосый) (Лицензия)

Режиссер: Йонас Акерлунд
Продюссер: Майкл Бэй, Эндрю Форм, Брэдли Фуллер

Премьера в мире: 14 мая 2008

IMDB 5.50 (11 948)


В ролях: Деннис Куэйд, Чжан Цзыи, Лу Тэйлор Пуччи, Клифтон Коллинз мл., Бэрри Шебака Хенли, Патрик Фьюджит, Эрик Бальфур, Пол Дули, Томас Митчел, Лайам Джеймс

Описание: Недавно овдовевший и всё ещё оплакивающий смерть жены, коп Эйдан Бреслин всё больше уединяется в своём горе и отдаляется от своих сыновей. На работе же он находит себя в расследовании ужасных и извращённых убийств, основанных на библейском пророчестве о Четырёх Всадниках Апокалипсиса. Постепенно, продвигаясь в расследовании, он начинает понимать, что существует прямая связь между этими убийствами и им самим...

Качество: HDRip
Формат: AVI
Видео кодек: XviD
Аудио кодек: AC3
Видео: 1 923 Kbps, 720 pixels х 400 pixels, 23.976 fps, Bits/Pixel: 0.278
Аудио#1: 384 Кбит/сек, 6 каналов, 48,0 КГц


Format : AVI
Format/Info : Audio Video Interleave
File size : 1.46 GiB
Duration : 1h 30mn
Overall bit rate : 2 316 Kbps
Writing application : VirtualDubMod 1.5.10.3 | www.virtualdub-fr.org || (build 2550/release)

Video
ID : 0
Format : MPEG-4 Visual
Format profile : Advanced Simple@L5
Format settings, BVOP : Yes
Format settings, QPel : No
Format settings, GMC : No warppoints
Format settings, Matrix : Custom
Codec ID : XVID
Codec ID/Hint : XviD
Duration : 1h 30mn
Bit rate : 1 923 Kbps
Width : 720 pixels
Height : 400 pixels
Display aspect ratio : 16:9
Frame rate : 23.976 fps
Color space : YUV
Chroma subsampling : 4:2:0
Bit depth : 8 bits
Scan type : Progressive
Bits/(Pixel*Frame) : 0.278
Stream size : 1.21 GiB (83%)
Writing library : XviD 1.2.1 (UTC 2008-12-04)

Audio
ID : 1
Format : AC-3
Format/Info : Audio Coding 3
Mode extension : CM (complete main)
Codec ID : 2000
Duration : 1h 30mn
Bit rate mode : Constant
Bit rate : 384 Kbps
Channel(s) : 6 channels
Channel positions : Front: L C R, Side: L R, LFE
Sampling rate : 48.0 KHz
Bit depth : 16 bits
Stream size : 248 MiB (17%)
Alignment : Split accross interleaves
Interleave, duration : 42 ms (1.00 video frame)
Interleave, preload duration : 500 ms

pb.wtf



Скачать Всадники апокалипсиса через торрент http://pic.kartinco.top/images/2000/4lhixbvrz6.jpg Скачать фильм Всадники апокалипсиса через торрент бесплантно в хорошем качестве Описание: Недавно овдовевший и всё ещё оплакивающий смерть жены, коп Эйдан Бреслин всё больше уединяется в своём горе и отдаляется от своих ... 10 10 2
Info! Золотая раздача, скачанное не засчитывается.
Торрент: Зарегистрирован [2012-05-25 19:39] · скачан: 292 раз
Статус: √ проверено
Размер: 1.46 GB
Как cкачать? Как скачать Всадники апокалипсиса через торрент | qTorrent

% Раздел Тема Автор DL S | L
Фильмы (DVD фильмы) [ 5.9 GB ] Всадники апокалипсиса / Horsemen [2009 DVD9] R5 voovaz Скачать
1 | 0


>> Регистрируемся здесь <<






Отзывы и комментарии о схеме читаем и пишем здесь: ---> Отзывы и комментарии о схеме

Новые благодарочки в телеграм довольных пользователей:
скриншот   скриншот   скриншот   скриншот   скриншот
    Дорогой пользователь! Огромная просьба, поблагодарите релизера, оцените раздачу и оставьте свои комментарий, если Вы скачали Всадники апокалипсиса через торрент бесплатно! Внесите свою лепту в развитие PiratBit!
    Комментировать посты могут только пользователи прошедшие не сложную регистрацию
    Показать сообщения:    

    Всадники апокалипсиса через торрент
    Скачать бесплатно Всадники апокалипсиса
    Всадники апокалипсиса скачать торрент
    Всадники апокалипсиса смотреть онлайн
    Cкачать фильм Всадники апокалипсиса бесплатно
    Всадники апокалипсиса скачать торрент в хорошем качестве
    Всадники апокалипсиса смотреть онлайн бесплатно в хорошем качестве


    Вы не можете начинать темы
    Вы не можете отвечать на сообщения
    Вы не можете редактировать свои сообщения
    Вы не можете удалять свои сообщения
    Вы не можете голосовать в опросах
    Вы не можете прикреплять файлы к сообщениям
    Вы можете скачивать файлы